  0
SECTION
  2
HEADER
  9
$ACADVER
  1
AC1015
  9
$ACADMAINTVER
 70
     6
  9
$DWGCODEPAGE
  3
ANSI_1252
  9
$INSBASE
 10
0.0
 20
0.0
 30
0.0
  9
$EXTMIN
 10
19.49999999999996
 20
19.4999999999999
 30
0.0
  9
$EXTMAX
 10
574.5
 20
420.5
 30
0.0
  9
$LIMMIN
 10
0.0
 20
0.0
  9
$LIMMAX
 10
12.0
 20
9.0
  9
$ORTHOMODE
 70
     0
  9
$REGENMODE
 70
     1
  9
$FILLMODE
 70
     1
  9
$QTEXTMODE
 70
     0
  9
$MIRRTEXT
 70
     1
  9
$LTSCALE
 40
1.0
  9
$ATTMODE
 70
     1
  9
$TEXTSIZE
 40
0.2
  9
$TRACEWID
 40
0.05
  9
$TEXTSTYLE
  7
Standard
  9
$CLAYER
  8
0
  9
$CELTYPE
  6
ByLayer
  9
$CECOLOR
 62
   256
  9
$CELTSCALE
 40
1.0
  9
$DISPSILH
 70
     0
  9
$DIMSCALE
 40
1.0
  9
$DIMASZ
 40
0.18
  9
$DIMEXO
 40
0.0625
  9
$DIMDLI
 40
0.38
  9
$DIMRND
 40
0.0
  9
$DIMDLE
 40
0.0
  9
$DIMEXE
 40
0.18
  9
$DIMTP
 40
0.0
  9
$DIMTM
 40
0.0
  9
$DIMTXT
 40
0.18
  9
$DIMCEN
 40
0.09
  9
$DIMTSZ
 40
0.0
  9
$DIMTOL
 70
     0
  9
$DIMLIM
 70
     0
  9
$DIMTIH
 70
     1
  9
$DIMTOH
 70
     1
  9
$DIMSE1
 70
     0
  9
$DIMSE2
 70
     0
  9
$DIMTAD
 70
     0
  9
$DIMZIN
 70
     0
  9
$DIMBLK
  1

  9
$DIMASO
 70
     1
  9
$DIMSHO
 70
     1
  9
$DIMPOST
  1

  9
$DIMAPOST
  1

  9
$DIMALT
 70
     0
  9
$DIMALTD
 70
     2
  9
$DIMALTF
 40
25.4
  9
$DIMLFAC
 40
1.0
  9
$DIMTOFL
 70
     0
  9
$DIMTVP
 40
0.0
  9
$DIMTIX
 70
     0
  9
$DIMSOXD
 70
     0
  9
$DIMSAH
 70
     0
  9
$DIMBLK1
  1

  9
$DIMBLK2
  1

  9
$DIMSTYLE
  2
Standard
  9
$DIMCLRD
 70
     0
  9
$DIMCLRE
 70
     0
  9
$DIMCLRT
 70
     0
  9
$DIMTFAC
 40
1.0
  9
$DIMGAP
 40
0.09
  9
$DIMJUST
 70
     0
  9
$DIMSD1
 70
     0
  9
$DIMSD2
 70
     0
  9
$DIMTOLJ
 70
     1
  9
$DIMTZIN
 70
     0
  9
$DIMALTZ
 70
     0
  9
$DIMALTTZ
 70
     0
  9
$DIMUPT
 70
     0
  9
$DIMDEC
 70
     4
  9
$DIMTDEC
 70
     4
  9
$DIMALTU
 70
     2
  9
$DIMALTTD
 70
     2
  9
$DIMTXSTY
  7
Standard
  9
$DIMAUNIT
 70
     0
  9
$DIMADEC
 70
     0
  9
$DIMALTRND
 40
0.0
  9
$DIMAZIN
 70
     0
  9
$DIMDSEP
 70
    46
  9
$DIMATFIT
 70
     3
  9
$DIMFRAC
 70
     0
  9
$DIMLDRBLK
  1

  9
$DIMLUNIT
 70
     2
  9
$DIMLWD
 70
    -2
  9
$DIMLWE
 70
    -2
  9
$DIMTMOVE
 70
     0
  9
$LUNITS
 70
     2
  9
$LUPREC
 70
     4
  9
$SKETCHINC
 40
0.1
  9
$FILLETRAD
 40
0.5
  9
$AUNITS
 70
     0
  9
$AUPREC
 70
     0
  9
$MENU
  1
.
  9
$ELEVATION
 40
0.0
  9
$PELEVATION
 40
0.0
  9
$THICKNESS
 40
0.0
  9
$LIMCHECK
 70
     0
  9
$CHAMFERA
 40
0.5
  9
$CHAMFERB
 40
0.5
  9
$CHAMFERC
 40
1.0
  9
$CHAMFERD
 40
0.0
  9
$SKPOLY
 70
     0
  9
$TDCREATE
 40
2454986.467107639
  9
$TDUCREATE
 40
2454986.383774306
  9
$TDUPDATE
 40
2454986.46710765
  9
$TDUUPDATE
 40
2454986.383774317
  9
$TDINDWG
 40
0.0000000116
  9
$TDUSRTIMER
 40
0.0000000116
  9
$USRTIMER
 70
     1
  9
$ANGBASE
 50
0.0
  9
$ANGDIR
 70
     0
  9
$PDMODE
 70
     0
  9
$PDSIZE
 40
0.0
  9
$PLINEWID
 40
0.0
  9
$SPLFRAME
 70
     0
  9
$SPLINETYPE
 70
     6
  9
$SPLINESEGS
 70
     8
  9
$HANDSEED
  5
3A4
  9
$SURFTAB1
 70
     6
  9
$SURFTAB2
 70
     6
  9
$SURFTYPE
 70
     6
  9
$SURFU
 70
     6
  9
$SURFV
 70
     6
  9
$UCSBASE
  2

  9
$UCSNAME
  2

  9
$UCSORG
 10
0.0
 20
0.0
 30
0.0
  9
$UCSXDIR
 10
1.0
 20
0.0
 30
0.0
  9
$UCSYDIR
 10
0.0
 20
1.0
 30
0.0
  9
$UCSORTHOREF
  2

  9
$UCSORTHOVIEW
 70
     0
  9
$UCSORGTOP
 10
0.0
 20
0.0
 30
0.0
  9
$UCSORGBOTTOM
 10
0.0
 20
0.0
 30
0.0
  9
$UCSORGLEFT
 10
0.0
 20
0.0
 30
0.0
  9
$UCSORGRIGHT
 10
0.0
 20
0.0
 30
0.0
  9
$UCSORGFRONT
 10
0.0
 20
0.0
 30
0.0
  9
$UCSORGBACK
 10
0.0
 20
0.0
 30
0.0
  9
$PUCSBASE
  2

  9
$PUCSNAME
  2

  9
$PUCSORG
 10
0.0
 20
0.0
 30
0.0
  9
$PUCSXDIR
 10
1.0
 20
0.0
 30
0.0
  9
$PUCSYDIR
 10
0.0
 20
1.0
 30
0.0
  9
$PUCSORTHOREF
  2

  9
$PUCSORTHOVIEW
 70
     0
  9
$PUCSORGTOP
 10
0.0
 20
0.0
 30
0.0
  9
$PUCSORGBOTTOM
 10
0.0
 20
0.0
 30
0.0
  9
$PUCSORGLEFT
 10
0.0
 20
0.0
 30
0.0
  9
$PUCSORGRIGHT
 10
0.0
 20
0.0
 30
0.0
  9
$PUCSORGFRONT
 10
0.0
 20
0.0
 30
0.0
  9
$PUCSORGBACK
 10
0.0
 20
0.0
 30
0.0
  9
$USERI1
 70
     0
  9
$USERI2
 70
     0
  9
$USERI3
 70
     0
  9
$USERI4
 70
     0
  9
$USERI5
 70
     0
  9
$USERR1
 40
16.0
  9
$USERR2
 40
0.0
  9
$USERR3
 40
0.0
  9
$USERR4
 40
0.0
  9
$USERR5
 40
0.0
  9
$WORLDVIEW
 70
     1
  9
$SHADEDGE
 70
     3
  9
$SHADEDIF
 70
    70
  9
$TILEMODE
 70
     1
  9
$MAXACTVP
 70
    64
  9
$PINSBASE
 10
0.0
 20
0.0
 30
0.0
  9
$PLIMCHECK
 70
     0
  9
$PEXTMIN
 10
1.00000000000000E+20
 20
1.00000000000000E+20
 30
1.00000000000000E+20
  9
$PEXTMAX
 10
-1.00000000000000E+20
 20
-1.00000000000000E+20
 30
-1.00000000000000E+20
  9
$PLIMMIN
 10
0.0
 20
0.0
  9
$PLIMMAX
 10
12.0
 20
9.0
  9
$UNITMODE
 70
     0
  9
$VISRETAIN
 70
     1
  9
$PLINEGEN
 70
     0
  9
$PSLTSCALE
 70
     1
  9
$TREEDEPTH
 70
  3020
  9
$CMLSTYLE
  2
Standard
  9
$CMLJUST
 70
     0
  9
$CMLSCALE
 40
1.0
  9
$PROXYGRAPHICS
 70
     1
  9
$MEASUREMENT
 70
     1
  9
$CELWEIGHT
370
    -1
  9
$ENDCAPS
280
     0
  9
$JOINSTYLE
280
     0
  9
$LWDISPLAY
290
     0
  9
$INSUNITS
 70
     1
  9
$HYPERLINKBASE
  1

  9
$STYLESHEET
  1

  9
$XEDIT
290
     1
  9
$CEPSNTYPE
380
     0
  9
$PSTYLEMODE
290
     1
  9
$FINGERPRINTGUID
  2
{3FD8622A-F7F9-40B1-9E87-9347CBD6915E}
  9
$VERSIONGUID
  2
{FAEB1C32-E019-11D5-929B-00C0DF256EC4}
  9
$EXTNAMES
290
     1
  9
$PSVPSCALE
 40
0.0
  9
$OLESTARTUP
290
     0
  0
ENDSEC
  0
SECTION
  2
CLASSES
  0
CLASS
  1
ACDBDICTIONARYWDFLT
  2
AcDbDictionaryWithDefault
  3
ObjectDBX Classes
 90
        0
280
     0
281
     0
  0
CLASS
  1
VISUALSTYLE
  2
AcDbVisualStyle
  3
ObjectDBX Classes
 90
     4095
280
     0
281
     0
  0
CLASS
  1

  2
exOdDbPolyline
  3

 90
        0
280
     0
281
     1
  0
CLASS
  1

  2
exOdDbSpline
  3

 90
        0
280
     0
281
     1
  0
CLASS
  1
ACDBPLACEHOLDER
  2
AcDbPlaceHolder
  3
ObjectDBX Classes
 90
        0
280
     0
281
     0
  0
CLASS
  1
LAYOUT
  2
AcDbLayout
  3
ObjectDBX Classes
 90
        0
280
     0
281
     0
  0
ENDSEC
  0
SECTION
  2
TABLES
  0
TABLE
  2
VPORT
  5
8
330
0
100
AcDbSymbolTable
 70
     1
  0
VPORT
  5
29
330
8
100
AcDbSymbolTableRecord
100
AcDbViewportTableRecord
  2
*Active
 70
     0
 10
0.0
 20
0.0
 11
1.0
 21
1.0
 12
297.0
 22
219.9999999999999
 13
0.0
 23
0.0
 14
0.5
 24
0.5
 15
0.5
 25
0.5
 16
0.0
 26
0.0
 36
1.0
 17
0.0
 27
0.0
 37
0.0
 40
441.1000000000001
 41
1.60267857142857
 42
50.0
 43
0.0
 44
0.0
 50
0.0
 51
0.0
 71
     0
 72
   100
 73
     1
 74
     3
 75
     0
 76
     0
 77
     0
 78
     0
281
     0
 65
     1
110
0.0
120
0.0
130
0.0
111
1.0
121
0.0
131
0.0
112
0.0
122
1.0
132
0.0
 79
     0
146
0.0
  0
ENDTAB
  0
TABLE
  2
LTYPE
  5
5
330
0
100
AcDbSymbolTable
 70
     9
  0
LTYPE
  5
14
330
5
100
AcDbSymbolTableRecord
100
AcDbLinetypeTableRecord
  2
ByBlock
 70
     0
  3

 72
    65
 73
     0
 40
0.0
  0
LTYPE
  5
15
330
5
100
AcDbSymbolTableRecord
100
AcDbLinetypeTableRecord
  2
ByLayer
 70
     0
  3

 72
    65
 73
     0
 40
0.0
  0
LTYPE
  5
16
330
5
100
AcDbSymbolTableRecord
100
AcDbLinetypeTableRecord
  2
Continuous
 70
     0
  3
Solid line
 72
    65
 73
     0
 40
0.0
  0
LTYPE
  5
3B
330
5
100
AcDbSymbolTableRecord
100
AcDbLinetypeTableRecord
  2
DASHED
 70
     0
  3
Dashed
 72
    65
 73
     2
 40
15.0
 49
7.0
 74
     0
 49
-8.0
 74
     0
  0
LTYPE
  5
3C
330
5
100
AcDbSymbolTableRecord
100
AcDbLinetypeTableRecord
  2
DOTTED
 70
     0
  3
Dotted
 72
    65
 73
     2
 40
1.0
 49
0.0
 74
     0
 49
-1.0
 74
     0
  0
LTYPE
  5
3D
330
5
100
AcDbSymbolTableRecord
100
AcDbLinetypeTableRecord
  2
DOT_CENTER
 70
     0
  3
Dot_Center
 72
    65
 73
     4
 40
14.0
 49
12.0
 74
     0
 49
-1.0
 74
     0
 49
0.0
 74
     0
 49
-1.0
 74
     0
  0
LTYPE
  5
3E
330
5
100
AcDbSymbolTableRecord
100
AcDbLinetypeTableRecord
  2
LONG_DASHED
 70
     0
  3
Long_Dashed
 72
    65
 73
     2
 40
15.0
 49
10.0
 74
     0
 49
-5.0
 74
     0
  0
LTYPE
  5
3F
330
5
100
AcDbSymbolTableRecord
100
AcDbLinetypeTableRecord
  2
DASH_CENTER
 70
     0
  3
Dash_Center
 72
    65
 73
     4
 40
14.0
 49
11.0
 74
     0
 49
-1.0
 74
     0
 49
1.0
 74
     0
 49
-1.0
 74
     0
  0
LTYPE
  5
40
330
5
100
AcDbSymbolTableRecord
100
AcDbLinetypeTableRecord
  2
PHANTOM
 70
     0
  3
Phantom
 72
    65
 73
     6
 40
13.0
 49
10.0
 74
     0
 49
-1.0
 74
     0
 49
0.0
 74
     0
 49
-1.0
 74
     0
 49
0.0
 74
     0
 49
-1.0
 74
     0
  0
LTYPE
  5
41
330
5
100
AcDbSymbolTableRecord
100
AcDbLinetypeTableRecord
  2
CENTER_DASH_DASH
 70
     0
  3
Center_Dash_Dash
 72
    65
 73
     6
 40
14.0
 49
9.0
 74
     0
 49
-1.0
 74
     0
 49
1.0
 74
     0
 49
-1.0
 74
     0
 49
1.0
 74
     0
 49
-1.0
 74
     0
  0
LTYPE
  5
42
330
5
100
AcDbSymbolTableRecord
100
AcDbLinetypeTableRecord
  2
CHAIN
 70
     0
  3
CHAIN
 72
    65
 73
     4
 40
4.0
 49
1.0
 74
     0
 49
-1.0
 74
     0
 49
1.0
 74
     0
 49
-1.0
 74
     0
  0
ENDTAB
  0
TABLE
  2
LAYER
  5
2
330
0
100
AcDbSymbolTable
 70
     9
  0
LAYER
  5
10
330
2
100
AcDbSymbolTableRecord
100
AcDbLayerTableRecord
  2
0
 70
     0
 62
     7
  6
Continuous
370
    -3
390
F
  0
LAYER
  5
43
330
2
100
AcDbSymbolTableRecord
100
AcDbLayerTableRecord
  2
Bemaßungen_TC_020513_DIN_
 70
     0
 62
     7
  6
Continuous
370
    -3
390
F
  0
LAYER
  5
44
330
2
100
AcDbSymbolTableRecord
100
AcDbLayerTableRecord
  2
Mittellinie_TC_020513_DIN_
 70
     0
 62
     7
  6
Continuous
370
    -3
390
F
  0
LAYER
  5
45
330
2
100
AcDbSymbolTableRecord
100
AcDbLayerTableRecord
  2
Mittelpunktmarkierung_TC_020513_DIN_
 70
     0
 62
     7
  6
Continuous
370
    -3
390
F
  0
LAYER
  5
46
330
2
100
AcDbSymbolTableRecord
100
AcDbLayerTableRecord
  2
Schraffur
 70
     0
 62
     7
  6
Continuous
370
    -3
390
F
  0
LAYER
  5
47
330
2
100
AcDbSymbolTableRecord
100
AcDbLayerTableRecord
  2
Sichtbare_Kanten_TC_020513_DIN_
 70
     0
 62
     7
  6
Continuous
370
    -3
390
F
  0
LAYER
  5
48
330
2
100
AcDbSymbolTableRecord
100
AcDbLayerTableRecord
  2
Skizziergeometrie_ISO_
 70
     0
 62
     7
  6
Continuous
370
    -3
390
F
  0
LAYER
  5
49
330
2
100
AcDbSymbolTableRecord
100
AcDbLayerTableRecord
  2
Symbole_ISO_
 70
     0
 62
     7
  6
Continuous
370
    -3
390
F
  0
LAYER
  5
4A
330
2
100
AcDbSymbolTableRecord
100
AcDbLayerTableRecord
  2
Symbole_TC_020513_DIN_
 70
     0
 62
     7
  6
Continuous
370
    -3
390
F
  0
ENDTAB
  0
TABLE
  2
STYLE
  5
3
330
0
100
AcDbSymbolTable
 70
     6
  0
STYLE
  5
11
330
3
100
AcDbSymbolTableRecord
100
AcDbTextStyleTableRecord
  2
Standard
 70
     0
 40
0.0
 41
1.0
 50
0.0
 71
     0
 42
0.2
  3
txt
  4

  0
STYLE
  5
E9
330
3
100
AcDbSymbolTableRecord
100
AcDbTextStyleTableRecord
  2
CONVERTER_11
 70
     0
 40
0.0
 41
0.59999996423721
 50
0.0
 71
     0
 42
0.2
  3
txt.shx
  4

  0
STYLE
  5
EB
330
3
100
AcDbSymbolTableRecord
100
AcDbTextStyleTableRecord
  2
CONVERTER_12
 70
     0
 40
0.0
 41
0.67499998211861
 50
0.0
 71
     0
 42
0.2
  3
txt.shx
  4

  0
STYLE
  5
334
330
3
100
AcDbSymbolTableRecord
100
AcDbTextStyleTableRecord
  2
CONVERTER_13
 70
     0
 40
0.0
 41
0.74999995529652
 50
0.0
 71
     0
 42
0.2
  3
ARIAL.TTF
  4

  0
STYLE
  5
336
330
3
100
AcDbSymbolTableRecord
100
AcDbTextStyleTableRecord
  2
CONVERTER_14
 70
     0
 40
0.0
 41
0.56249998509884
 50
0.0
 71
     0
 42
0.2
  3
ARIAL.TTF
  4

  0
STYLE
  5
338
330
3
100
AcDbSymbolTableRecord
100
AcDbTextStyleTableRecord
  2
CONVERTER_15
 70
     0
 40
0.0
 41
0.625
 50
0.0
 71
     0
 42
0.2
  3
ARIAL.TTF
  4

  0
ENDTAB
  0
TABLE
  2
VIEW
  5
6
330
0
100
AcDbSymbolTable
 70
     0
  0
ENDTAB
  0
TABLE
  2
UCS
  5
7
330
0
100
AcDbSymbolTable
 70
     0
  0
ENDTAB
  0
TABLE
  2
APPID
  5
9
330
0
100
AcDbSymbolTable
 70
     1
  0
APPID
  5
12
330
9
100
AcDbSymbolTableRecord
100
AcDbRegAppTableRecord
  2
ACAD
 70
     0
  0
ENDTAB
  0
TABLE
  2
DIMSTYLE
  5
A
330
0
100
AcDbSymbolTable
 70
    11
100
AcDbDimStyleTable
  0
DIMSTYLE
105
27
330
A
100
AcDbSymbolTableRecord
100
AcDbDimStyleTableRecord
  2
Standard
 70
     0
340
11
  0
DIMSTYLE
105
33A
330
A
100
AcDbSymbolTableRecord
100
AcDbDimStyleTableRecord
  2
ME10_DIM_10
 70
     0
140
6.99999988079071
147
1.74999997019768
178
     7
340
11
  0
DIMSTYLE
105
345
102
{ACAD_REACTORS
330
346
102
}
330
A
100
AcDbSymbolTableRecord
100
AcDbDimStyleTableRecord
  2
ME10_DIM_11
 70
     0
 41
5.0
 42
2.0
 44
4.0
 73
     0
 74
     0
 77
     1
 78
    12
140
7.0
147
0.8
172
     1
173
     1
176
     7
177
     7
178
     7
271
     2
340
338
  0
DIMSTYLE
105
352
102
{ACAD_REACTORS
330
353
102
}
330
A
100
AcDbSymbolTableRecord
100
AcDbDimStyleTableRecord
  2
ME10_DIM_12
 70
     0
 41
5.0
 42
2.0
 44
4.0
 73
     0
 74
     0
 77
     1
 78
    12
140
7.0
147
0.8
172
     1
173
     1
176
     7
177
     7
178
     7
271
     2
340
338
  0
DIMSTYLE
105
35D
102
{ACAD_REACTORS
330
35E
102
}
330
A
100
AcDbSymbolTableRecord
100
AcDbDimStyleTableRecord
  2
ME10_DIM_13
 70
     0
 41
5.0
 42
2.0
 44
4.0
 73
     0
 74
     0
 77
     1
 78
    12
140
7.0
147
0.8
172
     1
173
     1
176
     7
177
     7
178
     7
271
     2
340
338
  0
DIMSTYLE
105
368
102
{ACAD_REACTORS
330
369
102
}
330
A
100
AcDbSymbolTableRecord
100
AcDbDimStyleTableRecord
  2
ME10_DIM_14
 70
     0
 41
5.0
 42
2.0
 44
4.0
 73
     0
 74
     0
 77
     1
 78
    12
140
7.0
147
0.8
172
     1
173
     1
176
     7
177
     7
178
     7
271
     2
340
338
  0
DIMSTYLE
105
373
102
{ACAD_REACTORS
330
374
102
}
330
A
100
AcDbSymbolTableRecord
100
AcDbDimStyleTableRecord
  2
ME10_DIM_15
 70
     0
 41
5.0
 42
2.0
 44
4.0
 73
     0
 74
     0
 77
     1
 78
    12
140
7.0
147
0.8
172
     1
173
     1
176
     7
177
     7
178
     7
271
     2
340
338
  0
DIMSTYLE
105
37E
102
{ACAD_REACTORS
330
37F
102
}
330
A
100
AcDbSymbolTableRecord
100
AcDbDimStyleTableRecord
  2
ME10_DIM_16
 70
     0
 41
5.0
 42
2.0
 44
4.0
 73
     0
 74
     0
 77
     1
 78
    12
140
7.0
147
0.8
172
     1
173
     1
176
     7
177
     7
178
     7
271
     2
340
338
  0
DIMSTYLE
105
389
102
{ACAD_REACTORS
330
38A
102
}
330
A
100
AcDbSymbolTableRecord
100
AcDbDimStyleTableRecord
  2
ME10_DIM_17
 70
     0
 41
5.0
 42
2.0
 44
4.0
 73
     0
 74
     0
 77
     1
 78
    12
140
7.0
147
0.8
172
     1
173
     1
176
     7
177
     7
178
     7
271
     2
340
338
  0
DIMSTYLE
105
394
102
{ACAD_REACTORS
330
395
102
}
330
A
100
AcDbSymbolTableRecord
100
AcDbDimStyleTableRecord
  2
ME10_DIM_18
 70
     0
 41
5.0
 42
2.0
 44
4.0
 73
     0
 74
     0
 77
     1
 78
    12
140
7.0
147
0.8
172
     1
173
     1
176
     7
177
     7
178
     7
271
     2
340
338
  0
DIMSTYLE
105
39F
102
{ACAD_REACTORS
330
3A0
102
}
330
A
100
AcDbSymbolTableRecord
100
AcDbDimStyleTableRecord
  2
ME10_DIM_19
 70
     0
 41
5.0
 42
2.0
 44
4.0
 73
     0
 74
     0
 77
     1
 78
    12
140
7.0
147
0.8
172
     1
173
     1
176
     7
177
     7
178
     7
271
     2
340
338
  0
ENDTAB
  0
TABLE
  2
BLOCK_RECORD
  5
1
330
0
100
AcDbSymbolTable
 70
    12
  0
BLOCK_RECORD
  5
1F
330
1
100
AcDbSymbolTableRecord
100
AcDbBlockTableRecord
  2
*Model_Space
340
22
  0
BLOCK_RECORD
  5
1B
330
1
100
AcDbSymbolTableRecord
100
AcDbBlockTableRecord
  2
*Paper_Space
340
1E
  0
BLOCK_RECORD
  5
23
330
1
100
AcDbSymbolTableRecord
100
AcDbBlockTableRecord
  2
*Paper_Space0
340
26
  0
BLOCK_RECORD
  5
4B
330
1
100
AcDbSymbolTableRecord
100
AcDbBlockTableRecord
  2
Schriftfelder_Ilme
340
0
102
{BLKREFS
331
51
102
}
  0
BLOCK_RECORD
  5
4E
330
1
100
AcDbSymbolTableRecord
100
AcDbBlockTableRecord
  2
Ränder_Ilme_Rahmen_A4_quer
340
0
102
{BLKREFS
331
52
102
}
  0
BLOCK_RECORD
  5
33C
330
1
100
AcDbSymbolTableRecord
100
AcDbBlockTableRecord
  2
*D3
340
0
  0
BLOCK_RECORD
  5
347
330
1
100
AcDbSymbolTableRecord
100
AcDbBlockTableRecord
  2
*D4
340
0
  0
BLOCK_RECORD
  5
354
330
1
100
AcDbSymbolTableRecord
100
AcDbBlockTableRecord
  2
*D5
340
0
  0
BLOCK_RECORD
  5
35F
330
1
100
AcDbSymbolTableRecord
100
AcDbBlockTableRecord
  2
*D6
340
0
  0
BLOCK_RECORD
  5
36A
330
1
100
AcDbSymbolTableRecord
100
AcDbBlockTableRecord
  2
*D7
340
0
  0
BLOCK_RECORD
  5
375
330
1
100
AcDbSymbolTableRecord
100
AcDbBlockTableRecord
  2
*D8
340
0
  0
BLOCK_RECORD
  5
380
330
1
100
AcDbSymbolTableRecord
100
AcDbBlockTableRecord
  2
*D9
340
0
  0
BLOCK_RECORD
  5
38B
330
1
100
AcDbSymbolTableRecord
100
AcDbBlockTableRecord
  2
*D10
340
0
  0
BLOCK_RECORD
  5
396
330
1
100
AcDbSymbolTableRecord
100
AcDbBlockTableRecord
  2
*D11
340
0
  0
ENDTAB
  0
ENDSEC
  0
SECTION
  2
BLOCKS
  0
BLOCK
  5
20
330
1F
100
AcDbEntity
  8
0
100
AcDbBlockBegin
  2
*Model_Space
 70
     0
 10
0.0
 20
0.0
 30
0.0
  3
*Model_Space
  1

  0
ENDBLK
  5
21
330
1F
100
AcDbEntity
  8
0
100
AcDbBlockEnd
  0
BLOCK
  5
1C
330
1B
100
AcDbEntity
 67
     1
  8
0
100
AcDbBlockBegin
  2
*Paper_Space
 70
     0
 10
0.0
 20
0.0
 30
0.0
  3
*Paper_Space
  1

  0
ENDBLK
  5
1D
330
1B
100
AcDbEntity
 67
     1
  8
0
100
AcDbBlockEnd
  0
BLOCK
  5
24
330
23
100
AcDbEntity
  8
0
100
AcDbBlockBegin
  2
*Paper_Space0
 70
     0
 10
0.0
 20
0.0
 30
0.0
  3
*Paper_Space0
  1

  0
ENDBLK
  5
25
330
23
100
AcDbEntity
  8
0
100
AcDbBlockEnd
  0
BLOCK
  5
4C
330
4B
100
AcDbEntity
  8
0
100
AcDbBlockBegin
  2
Schriftfelder_Ilme
 70
     0
 10
0.0
 20
0.0
 30
0.0
  3
Schriftfelder_Ilme
  1

  0
LINE
  5
53
102
{ACAD_REACTORS
330
EF
330
EF
102
}
330
4B
100
AcDbEntity
  8
0
  6
Continuous
 62
     7
100
AcDbLine
 10
192.857882489926
 20
15.5586421730067
 30
0.0
 11
191.48842975933
 21
14.7685732899702
 31
0.0
  0
LINE
  5
54
102
{ACAD_REACTORS
330
EF
330
EF
102
}
330
4B
100
AcDbEntity
  8
0
  6
Continuous
 62
     7
100
AcDbLine
 10
190.988522274833
 20
15.0573018186531
 30
0.0
 11
190.988522274833
 21
19.9439783665993
 31
0.0
  0
LINE
  5
55
102
{ACAD_REACTORS
330
EF
330
EF
102
}
330
4B
100
AcDbEntity
  8
0
  6
Continuous
 62
     7
100
AcDbLine
 10
191.48842975933
 20
20.2327068952822
 30
0.0
 11
192.857882489926
 21
19.4426380122457
 31
0.0
  0
LINE
  5
56
102
{ACAD_REACTORS
330
EF
330
EF
102
}
330
4B
100
AcDbEntity
  8
0
  6
Continuous
 62
     7
100
AcDbLine
 10
192.5247341876
 20
18.8651809548799
 30
0.0
 11
191.6551889415
 21
19.3668416737836
 31
0.0
  0
LINE
  5
57
102
{ACAD_REACTORS
330
EF
330
EF
102
}
330
4B
100
AcDbEntity
  8
0
  6
Continuous
 62
     7
100
AcDbLine
 10
191.6551889415
 20
19.3668416737836
 30
0.0
 11
191.6551889415
 21
17.8339734259596
 31
0.0
  0
LINE
  5
58
102
{ACAD_REACTORS
330
EF
330
EF
102
}
330
4B
100
AcDbEntity
  8
0
  6
Continuous
 62
     7
100
AcDbLine
 10
191.6551889415
 20
17.8339734259596
 30
0.0
 11
192.691308338763
 21
17.8339734259596
 31
0.0
  0
LINE
  5
59
102
{ACAD_REACTORS
330
EF
330
EF
102
}
330
4B
100
AcDbEntity
  8
0
  6
Continuous
 62
     7
100
AcDbLine
 10
192.691308338763
 20
17.1673067592928
 30
0.0
 11
191.6551889415
 21
17.1673067592928
 31
0.0
  0
LINE
  5
5A
102
{ACAD_REACTORS
330
EF
330
EF
102
}
330
4B
100
AcDbEntity
  8
0
  6
Continuous
 62
     7
100
AcDbLine
 10
191.6551889415
 20
17.1673067592928
 30
0.0
 11
191.6551889415
 21
15.6344385114688
 31
0.0
  0
LINE
  5
5B
102
{ACAD_REACTORS
330
EF
330
EF
102
}
330
4B
100
AcDbEntity
  8
0
  6
Continuous
 62
     7
100
AcDbLine
 10
191.6551889415
 20
15.6344385114688
 30
0.0
 11
192.5247341876
 21
16.1360992303725
 31
0.0
  0
LINE
  5
5C
102
{ACAD_REACTORS
330
F0
330
F0
102
}
330
4B
100
AcDbEntity
  8
0
  6
Continuous
 62
     7
100
AcDbLine
 10
186.988528696562
 20
20.7526980593071
 30
0.0
 11
186.988528696563
 21
15.8473707016896
 31
0.0
  0
LINE
  5
5D
102
{ACAD_REACTORS
330
F0
330
F0
102
}
330
4B
100
AcDbEntity
  8
0
  6
Continuous
 62
     7
100
AcDbLine
 10
187.655195363229
 20
15.8473707016896
 30
0.0
 11
187.655195363229
 21
19.2535360148728
 31
0.0
  0
LINE
  5
5E
102
{ACAD_REACTORS
330
F0
330
F0
102
}
330
4B
100
AcDbEntity
  8
0
  6
Continuous
 62
     7
100
AcDbLine
 10
187.655195363229
 20
19.2535360148728
 30
0.0
 11
188.510852383006
 21
17.7714945827671
 31
0.0
  0
LINE
  5
5F
102
{ACAD_REACTORS
330
F0
330
F0
102
}
330
4B
100
AcDbEntity
  8
0
  6
Continuous
 62
     7
100
AcDbLine
 10
188.7995275176
 20
17.7714945827671
 30
0.0
 11
189.655184537377
 21
19.2535360148728
 31
0.0
  0
LINE
  5
60
102
{ACAD_REACTORS
330
F0
330
F0
102
}
330
4B
100
AcDbEntity
  8
0
  6
Continuous
 62
     7
100
AcDbLine
 10
189.655184537377
 20
19.2535360148728
 30
0.0
 11
189.655184537377
 21
14.2880685085818
 31
0.0
  0
LINE
  5
61
102
{ACAD_REACTORS
330
F0
330
F0
102
}
330
4B
100
AcDbEntity
  8
0
  6
Continuous
 62
     7
100
AcDbLine
 10
190.321851204044
 20
14.2880685085818
 30
0.0
 11
190.321851204044
 21
20.752698059307
 31
0.0
  0
LINE
  5
62
102
{ACAD_REACTORS
330
F0
330
F0
102
}
330
4B
100
AcDbEntity
  8
0
  6
Continuous
 62
     7
100
AcDbLine
 10
189.82741752042
 20
20.8851811655447
 30
0.0
 11
188.655189950303
 21
18.8548234560689
 31
0.0
  0
LINE
  5
63
102
{ACAD_REACTORS
330
F0
330
F0
102
}
330
4B
100
AcDbEntity
  8
0
  6
Continuous
 62
     7
100
AcDbLine
 10
188.655189950303
 20
18.8548234560689
 30
0.0
 11
187.482962380186
 21
20.8851811655447
 31
0.0
  0
LINE
  5
64
102
{ACAD_REACTORS
330
F1
330
F1
102
}
330
4B
100
AcDbEntity
  8
0
  6
Continuous
 62
     7
100
AcDbLine
 10
186.321857625773
 20
15.270660658657
 30
0.0
 11
186.321857625773
 21
19.9439783665993
 31
0.0
  0
LINE
  5
65
102
{ACAD_REACTORS
330
F1
330
F1
102
}
330
4B
100
AcDbEntity
  8
0
  6
Continuous
 62
     7
100
AcDbLine
 10
185.655190959106
 20
19.9439783665993
 30
0.0
 11
185.655190959106
 21
15.2706619304882
 31
0.0
  0
LINE
  5
66
102
{ACAD_REACTORS
330
F1
330
F1
102
}
330
4B
100
AcDbEntity
  8
0
  6
Continuous
 62
     7
100
AcDbLine
 10
185.988710425088
 20
14.6932029657285
 30
0.0
 11
188.15634562976
 21
13.4426441938023
 31
0.0
  0
LINE
  5
67
102
{ACAD_REACTORS
330
F1
330
F1
102
}
330
4B
100
AcDbEntity
  8
0
  6
Continuous
 62
     7
100
AcDbLine
 10
188.489493932086
 20
14.0201012511681
 30
0.0
 11
186.321857625773
 21
15.270660658657
 31
0.0
  0
LINE
  5
68
102
{ACAD_REACTORS
330
F2
330
F2
102
}
330
4B
100
AcDbEntity
  8
0
  6
Continuous
 62
     7
100
AcDbLine
 10
184.988523283636
 20
19.1539094835628
 30
0.0
 11
184.988523283636
 21
15.8473707016896
 31
0.0
  0
LINE
  5
69
102
{ACAD_REACTORS
330
F2
330
F2
102
}
330
4B
100
AcDbEntity
  8
0
  6
Continuous
 62
     7
100
AcDbLine
 10
184.32185661697
 20
15.8473707016896
 30
0.0
 11
184.32185661697
 21
19.1539094835628
 31
0.0
  0
ARC
  5
91
102
{ACAD_REACTORS
330
EF
330
EF
102
}
330
4B
100
AcDbEntity
  8
0
  6
Continuous
 62
     7
100
AcDbCircle
 10
191.321855608167
 20
15.0573018186531
 30
0.0
 40
0.3333333333339965
100
AcDbArc
 50
180.0
 51
299.9816393688164
  0
ARC
  5
92
102
{ACAD_REACTORS
330
EF
330
EF
102
}
330
4B
100
AcDbEntity
  8
0
  6
Continuous
 62
     7
100
AcDbCircle
 10
191.321855608167
 20
19.9439783665993
 30
0.0
 40
0.3333333333332604
100
AcDbArc
 50
60.01836063118353
 51
180.0
  0
ARC
  5
93
102
{ACAD_REACTORS
330
EF
330
EF
102
}
330
4B
100
AcDbEntity
  8
0
  6
Continuous
 62
     7
100
AcDbCircle
 10
192.691308338763
 20
19.1539094835628
 30
0.0
 40
0.3333333333332746
100
AcDbArc
 50
240.0183606311793
 51
60.01835942367227
  0
ARC
  5
94
102
{ACAD_REACTORS
330
EF
330
EF
102
}
330
4B
100
AcDbEntity
  8
0
  6
Continuous
 62
     7
100
AcDbCircle
 10
192.691308338763
 20
17.5006400926262
 30
0.0
 40
0.3333333333333997
100
AcDbArc
 50
270.0
 51
90.0
  0
ARC
  5
95
102
{ACAD_REACTORS
330
EF
330
EF
102
}
330
4B
100
AcDbEntity
  8
0
  6
Continuous
 62
     7
100
AcDbCircle
 10
192.691308338763
 20
15.8473707016896
 30
0.0
 40
0.3333333333332619
100
AcDbArc
 50
299.9816393688163
 51
119.9816393688206
  0
ARC
  5
96
102
{ACAD_REACTORS
330
F0
330
F0
102
}
330
4B
100
AcDbEntity
  8
0
  6
Continuous
 62
     7
100
AcDbCircle
 10
187.253494909038
 20
20.7526980593071
 30
0.0
 40
0.2649662124751274
100
AcDbArc
 50
30.00000000000922
 51
180.0
  0
ARC
  5
97
102
{ACAD_REACTORS
330
F0
330
F0
102
}
330
4B
100
AcDbEntity
  8
0
  6
Continuous
 62
     7
100
AcDbCircle
 10
187.321862029896
 20
15.8473707016896
 30
0.0
 40
0.3333333333330017
100
AcDbArc
 50
180.0
 51
0.0
  0
ARC
  5
98
102
{ACAD_REACTORS
330
F0
330
F0
102
}
330
4B
100
AcDbEntity
  8
0
  6
Continuous
 62
     7
100
AcDbCircle
 10
188.655189950303
 20
17.8548279161004
 30
0.0
 40
0.1666666666662864
100
AcDbArc
 50
210.0000000000623
 51
329.9999999999426
  0
ARC
  5
99
102
{ACAD_REACTORS
330
F0
330
F0
102
}
330
4B
100
AcDbEntity
  8
0
  6
Continuous
 62
     7
100
AcDbCircle
 10
189.98851787071
 20
14.2880685085818
 30
0.0
 40
0.3333333333330017
100
AcDbArc
 50
180.0
 51
0.0
  0
ARC
  5
9A
102
{ACAD_REACTORS
330
F0
330
F0
102
}
330
4B
100
AcDbEntity
  8
0
  6
Continuous
 62
     7
100
AcDbCircle
 10
190.056884991568
 20
20.752698059307
 30
0.0
 40
0.2649662124759971
100
AcDbArc
 50
0.0
 51
149.9999999999752
  0
ARC
  5
9B
102
{ACAD_REACTORS
330
F1
330
F1
102
}
330
4B
100
AcDbEntity
  8
0
  6
Continuous
 62
     7
100
AcDbCircle
 10
185.988524292439
 20
19.9439783665993
 30
0.0
 40
0.3333333333339965
100
AcDbArc
 50
0.0
 51
180.0
  0
ARC
  5
9C
102
{ACAD_REACTORS
330
F1
330
F1
102
}
330
4B
100
AcDbEntity
  8
0
  6
Continuous
 62
     7
100
AcDbCircle
 10
186.321859827834
 20
15.2706619304882
 30
0.0
 40
0.66666886872801
100
AcDbArc
 50
180.0
 51
240.0183606311481
  0
ARC
  5
9D
102
{ACAD_REACTORS
330
F1
330
F1
102
}
330
4B
100
AcDbEntity
  8
0
  6
Continuous
 62
     7
100
AcDbCircle
 10
188.322919780923
 20
13.7313727224852
 30
0.0
 40
0.3333333333332604
100
AcDbArc
 50
240.0183606311836
 51
60.01836063118368
  0
ARC
  5
9E
102
{ACAD_REACTORS
330
F2
330
F2
102
}
330
4B
100
AcDbEntity
  8
0
  6
Continuous
 62
     7
100
AcDbCircle
 10
184.655189950303
 20
15.8473707016896
 30
0.0
 40
0.3333333333330017
100
AcDbArc
 50
180.0
 51
0.0
  0
ARC
  5
9F
102
{ACAD_REACTORS
330
F2
330
F2
102
}
330
4B
100
AcDbEntity
  8
0
  6
Continuous
 62
     7
100
AcDbCircle
 10
184.655189950303
 20
19.1539094835628
 30
0.0
 40
0.3333333333330017
100
AcDbArc
 50
0.0
 51
180.0
  0
LWPOLYLINE
  5
B1
330
4B
100
AcDbEntity
  8
Skizziergeometrie_ISO_
  6
Continuous
 62
     7
100
AcDbPolyline
 90
        2
 70
     0
 43
0.5
 10
19.980189950303
 20
45.0006400926262
 10
19.980189950303
 20
10.0006400926262
  0
LWPOLYLINE
  5
B2
330
4B
100
AcDbEntity
  8
Skizziergeometrie_ISO_
  6
Continuous
 62
     7
100
AcDbPolyline
 90
        2
 70
     0
 43
0.5
 10
189.655184537377
 20
14.2880685085818
 10
189.655184537377
 20
19.2535360148728
  0
LWPOLYLINE
  5
B3
330
4B
100
AcDbEntity
  8
Skizziergeometrie_ISO_
  6
Continuous
 62
     7
100
AcDbPolyline
 90
        2
 70
     0
 43
0.5
 10
189.655184537377
 20
19.2535360148728
 10
188.7995275176
 20
17.7714945827671
  0
LWPOLYLINE
  5
B4
330
4B
100
AcDbEntity
  8
Skizziergeometrie_ISO_
  6
Continuous
 62
     7
100
AcDbPolyline
 90
        2
 70
     0
 43
0.5
 10
188.510852383006
 20
17.7714945827671
 10
187.655195363229
 20
19.2535360148728
  0
LWPOLYLINE
  5
B5
330
4B
100
AcDbEntity
  8
Skizziergeometrie_ISO_
  6
Continuous
 62
     7
100
AcDbPolyline
 90
        2
 70
     0
 43
0.5
 10
187.655195363229
 20
19.2535360148728
 10
187.655195363229
 20
15.8473707016896
  0
LWPOLYLINE
  5
B6
330
4B
100
AcDbEntity
  8
Skizziergeometrie_ISO_
  6
Continuous
 62
     7
100
AcDbPolyline
 90
        2
 70
     0
 43
0.5
 10
180.238754675162
 20
17.6450043569675
 10
188.655189950303
 20
22.500640092627
  0
LWPOLYLINE
  5
B7
330
4B
100
AcDbEntity
  8
Skizziergeometrie_ISO_
  6
Continuous
 62
     7
100
AcDbPolyline
 90
        2
 70
     0
 43
0.5
 10
188.655189950303
 20
22.500640092627
 10
197.071625225444
 20
17.6450043569675
  0
LWPOLYLINE
  5
B8
330
4B
100
AcDbEntity
  8
Skizziergeometrie_ISO_
  6
Continuous
 62
     7
100
AcDbPolyline
 90
        2
 70
     0
 43
0.5
 10
197.071625225444
 20
17.3562758282849
 10
188.655189950303
 20
12.5006400926254
  0
LWPOLYLINE
  5
B9
330
4B
100
AcDbEntity
  8
Skizziergeometrie_ISO_
  6
Continuous
 62
     7
100
AcDbPolyline
 90
        2
 70
     0
 43
0.5
 10
188.655189950303
 20
12.5006400926254
 10
180.238754675162
 20
17.3562758282849
  0
LWPOLYLINE
  5
BA
330
4B
100
AcDbEntity
  8
Skizziergeometrie_ISO_
  6
Continuous
 62
     7
100
AcDbPolyline
 90
        2
 70
     0
 43
0.5
 10
186.988528696563
 20
15.8473707016896
 10
186.988528696562
 20
20.7526980593071
  0
LWPOLYLINE
  5
BB
330
4B
100
AcDbEntity
  8
Skizziergeometrie_ISO_
  6
Continuous
 62
     7
100
AcDbPolyline
 90
        2
 70
     0
 43
0.5
 10
187.482962380186
 20
20.8851811655447
 10
188.655189950303
 20
18.8548234560689
  0
LWPOLYLINE
  5
BC
330
4B
100
AcDbEntity
  8
Skizziergeometrie_ISO_
  6
Continuous
 62
     7
100
AcDbPolyline
 90
        2
 70
     0
 43
0.5
 10
190.321851204044
 20
14.2880685085818
 10
190.321851204044
 20
20.752698059307
  0
LWPOLYLINE
  5
BD
330
4B
100
AcDbEntity
  8
Skizziergeometrie_ISO_
  6
Continuous
 62
     7
100
AcDbPolyline
 90
        2
 70
     0
 43
0.5
 10
189.82741752042
 20
20.8851811655447
 10
188.655189950303
 20
18.8548234560689
  0
LWPOLYLINE
  5
BE
330
4B
100
AcDbEntity
  8
Skizziergeometrie_ISO_
  6
Continuous
 62
     7
100
AcDbPolyline
 90
        2
 70
     0
 43
0.5
 10
185.655190959106
 20
15.2706619304882
 10
185.655190959106
 20
19.9439783665993
  0
LWPOLYLINE
  5
BF
330
4B
100
AcDbEntity
  8
Skizziergeometrie_ISO_
  6
Continuous
 62
     7
100
AcDbPolyline
 90
        2
 70
     0
 43
0.5
 10
186.321857625773
 20
19.9439783665993
 10
186.321857625773
 20
15.270660658657
  0
LWPOLYLINE
  5
C0
330
4B
100
AcDbEntity
  8
Skizziergeometrie_ISO_
  6
Continuous
 62
     7
100
AcDbPolyline
 90
        2
 70
     0
 43
0.5
 10
186.321857625773
 20
15.270660658657
 10
188.489493932086
 20
14.0201012511681
  0
LWPOLYLINE
  5
C1
330
4B
100
AcDbEntity
  8
Skizziergeometrie_ISO_
  6
Continuous
 62
     7
100
AcDbPolyline
 90
        2
 70
     0
 43
0.5
 10
188.15634562976
 20
13.4426441938023
 10
185.988710425088
 20
14.6932029657285
  0
LWPOLYLINE
  5
C2
330
4B
100
AcDbEntity
  8
Skizziergeometrie_ISO_
  6
Continuous
 62
     7
100
AcDbPolyline
 90
        2
 70
     0
 43
0.5
 10
184.988523283636
 20
19.1539094835628
 10
184.988523283636
 20
15.8473707016896
  0
LWPOLYLINE
  5
C3
330
4B
100
AcDbEntity
  8
Skizziergeometrie_ISO_
  6
Continuous
 62
     7
100
AcDbPolyline
 90
        2
 70
     0
 43
0.5
 10
184.32185661697
 20
15.8473707016896
 10
184.32185661697
 20
19.1539094835628
  0
LWPOLYLINE
  5
C4
330
4B
100
AcDbEntity
  8
Skizziergeometrie_ISO_
  6
Continuous
 62
     7
100
AcDbPolyline
 90
        2
 70
     0
 43
0.5
 10
191.48842975933
 20
20.2327068952822
 10
192.857882489926
 20
19.4426380122457
  0
LWPOLYLINE
  5
C5
330
4B
100
AcDbEntity
  8
Skizziergeometrie_ISO_
  6
Continuous
 62
     7
100
AcDbPolyline
 90
        2
 70
     0
 43
0.5
 10
192.5247341876
 20
18.8651809548799
 10
191.6551889415
 20
19.3668416737836
  0
LWPOLYLINE
  5
C6
330
4B
100
AcDbEntity
  8
Skizziergeometrie_ISO_
  6
Continuous
 62
     7
100
AcDbPolyline
 90
        2
 70
     0
 43
0.5
 10
191.6551889415
 20
19.3668416737836
 10
191.6551889415
 20
17.8339734259596
  0
LWPOLYLINE
  5
C7
330
4B
100
AcDbEntity
  8
Skizziergeometrie_ISO_
  6
Continuous
 62
     7
100
AcDbPolyline
 90
        2
 70
     0
 43
0.5
 10
191.6551889415
 20
17.8339734259596
 10
192.691308338763
 20
17.8339734259596
  0
LWPOLYLINE
  5
C8
330
4B
100
AcDbEntity
  8
Skizziergeometrie_ISO_
  6
Continuous
 62
     7
100
AcDbPolyline
 90
        2
 70
     0
 43
0.5
 10
192.691308338763
 20
17.1673067592928
 10
191.6551889415
 20
17.1673067592928
  0
LWPOLYLINE
  5
C9
330
4B
100
AcDbEntity
  8
Skizziergeometrie_ISO_
  6
Continuous
 62
     7
100
AcDbPolyline
 90
        2
 70
     0
 43
0.5
 10
191.6551889415
 20
17.1673067592928
 10
191.6551889415
 20
15.6344385114688
  0
LWPOLYLINE
  5
CA
330
4B
100
AcDbEntity
  8
Skizziergeometrie_ISO_
  6
Continuous
 62
     7
100
AcDbPolyline
 90
        2
 70
     0
 43
0.5
 10
191.6551889415
 20
15.6344385114688
 10
192.5247341876
 20
16.1360992303725
  0
LWPOLYLINE
  5
CB
330
4B
100
AcDbEntity
  8
Skizziergeometrie_ISO_
  6
Continuous
 62
     7
100
AcDbPolyline
 90
        2
 70
     0
 43
0.5
 10
192.857882489926
 20
15.5586421730067
 10
191.48842975933
 20
14.7685732899702
  0
LWPOLYLINE
  5
CC
330
4B
100
AcDbEntity
  8
Skizziergeometrie_ISO_
  6
Continuous
 62
     7
100
AcDbPolyline
 90
        2
 70
     0
 43
0.5
 10
190.988522274833
 20
15.0573018186531
 10
190.988522274833
 20
19.9439783665993
  0
LWPOLYLINE
  5
CD
330
4B
100
AcDbEntity
  8
Skizziergeometrie_ISO_
  6
Continuous
 62
     7
100
AcDbPolyline
 90
        2
 70
     0
 43
0.5
 10
177.330189950303
 20
25.0006400926262
 10
177.330189950303
 20
10.0006400926262
  0
LWPOLYLINE
  5
CE
330
4B
100
AcDbEntity
  8
Skizziergeometrie_ISO_
  6
Continuous
 62
     7
100
AcDbPolyline
 90
        2
 70
     0
 43
0.5
 10
159.980189950303
 20
25.0006400926262
 10
159.980189950303
 20
10.0006400926262
  0
LWPOLYLINE
  5
CF
330
4B
100
AcDbEntity
  8
Skizziergeometrie_ISO_
  6
Continuous
 62
     7
100
AcDbPolyline
 90
        2
 70
     0
 43
0.5
 10
49.9801899503031
 20
10.0006400926262
 10
49.9801899503031
 20
25.0006400926262
  0
LWPOLYLINE
  5
D0
330
4B
100
AcDbEntity
  8
Skizziergeometrie_ISO_
  6
Continuous
 62
     7
100
AcDbPolyline
 90
        2
 70
     0
 43
0.5
 10
44.980189950303
 20
45.0006400926262
 10
44.980189950303
 20
25.0006400926262
  0
LWPOLYLINE
  5
D1
330
4B
100
AcDbEntity
  8
Skizziergeometrie_ISO_
  6
Continuous
 62
     7
100
AcDbPolyline
 90
        2
 70
     0
 43
0.5
 10
26.980189950303
 20
45.0006400926262
 10
26.980189950303
 20
25.0006400926262
  0
LWPOLYLINE
  5
D2
330
4B
100
AcDbEntity
  8
Skizziergeometrie_ISO_
  6
Continuous
 62
     7
100
AcDbPolyline
 90
        2
 70
     0
 43
0.5
 10
19.980189950303
 20
17.5006400926262
 10
49.9801899503031
 20
17.5006400926262
  0
LWPOLYLINE
  5
D3
330
4B
100
AcDbEntity
  8
Skizziergeometrie_ISO_
  6
Continuous
 62
     7
100
AcDbPolyline
 90
        2
 70
     0
 43
0.5
 10
19.980189950303
 20
25.0006400926262
 10
199.980189950303
 20
25.0006400926262
  0
LWPOLYLINE
  5
D4
330
4B
100
AcDbEntity
  8
Skizziergeometrie_ISO_
  6
Continuous
 62
     7
100
AcDbPolyline
 90
        2
 70
     0
 43
0.5
 10
19.980189950303
 20
30.0006400926262
 10
199.980189950303
 20
30.0006400926262
  0
LWPOLYLINE
  5
D5
330
4B
100
AcDbEntity
  8
Skizziergeometrie_ISO_
  6
Continuous
 62
     7
100
AcDbPolyline
 90
        2
 70
     0
 43
0.5
 10
19.980189950303
 20
35.0006400926262
 10
199.980189950303
 20
35.0006400926262
  0
LWPOLYLINE
  5
D6
330
4B
100
AcDbEntity
  8
Skizziergeometrie_ISO_
  6
Continuous
 62
     7
100
AcDbPolyline
 90
        2
 70
     0
 43
0.5
 10
19.980189950303
 20
40.0006400926262
 10
199.980189950303
 20
40.0006400926262
  0
LWPOLYLINE
  5
D7
330
4B
100
AcDbEntity
  8
Skizziergeometrie_ISO_
  6
Continuous
 62
     7
100
AcDbPolyline
 90
        2
 70
     0
 43
0.5
 10
19.980189950303
 20
45.0006400926262
 10
199.980189950303
 20
45.0006400926262
  0
LWPOLYLINE
  5
D8
330
4B
100
AcDbEntity
  8
Skizziergeometrie_ISO_
  6
Continuous
 62
     7
100
AcDbPolyline
 90
        2
 70
     0
 43
0.5
 10
188.510852383006
 20
17.77149458276709
 42
0.57735026918893
 10
188.7995275176
 20
17.77149458276711
  0
LWPOLYLINE
  5
D9
330
4B
100
AcDbEntity
  8
Skizziergeometrie_ISO_
  6
Continuous
 62
     7
100
AcDbPolyline
 90
        2
 70
     0
 43
0.5
 10
185.655190959106
 20
15.2706619304882
 42
0.26803505952205
 10
185.988710425088
 20
14.6932029657285
  0
LWPOLYLINE
  5
DA
330
4B
100
AcDbEntity
  8
Skizziergeometrie_ISO_
  6
Continuous
 62
     7
100
AcDbPolyline
 90
        2
 70
     0
 43
0.5
 10
180.238754675162
 20
17.6450043569675
 42
0.57756392459859
 10
180.238754675162
 20
17.3562758282849
  0
LWPOLYLINE
  5
DB
330
4B
100
AcDbEntity
  8
Skizziergeometrie_ISO_
  6
Continuous
 62
     7
100
AcDbPolyline
 90
        2
 70
     0
 43
0.5
 10
197.071625225444
 20
17.3562758282849
 42
0.57756392459859
 10
197.071625225444
 20
17.6450043569675
  0
LWPOLYLINE
  5
DC
330
4B
100
AcDbEntity
  8
Skizziergeometrie_ISO_
  6
Continuous
 62
     7
100
AcDbPolyline
 90
        2
 70
     0
 43
0.5
 10
191.48842975933
 20
20.2327068952822
 42
0.57724345630757
 10
190.988522274833
 20
19.9439783665993
  0
LWPOLYLINE
  5
DD
330
4B
100
AcDbEntity
  8
Skizziergeometrie_ISO_
  6
Continuous
 62
     7
100
AcDbPolyline
 90
        2
 70
     0
 43
0.5
 10
190.988522274833
 20
15.0573018186531
 42
0.57724345630757
 10
191.48842975933
 20
14.7685732899702
  0
LWPOLYLINE
  5
DE
330
4B
100
AcDbEntity
  8
Skizziergeometrie_ISO_
  6
Continuous
 62
     7
100
AcDbPolyline
 90
        2
 70
     0
 43
0.5
 10
187.482962380186
 20
20.8851811655447
 42
0.76732698797888
 10
186.988528696562
 20
20.7526980593071
  0
LWPOLYLINE
  5
DF
330
4B
100
AcDbEntity
  8
Skizziergeometrie_ISO_
  6
Continuous
 62
     7
100
AcDbPolyline
 90
        2
 70
     0
 43
0.5
 10
186.988528696563
 20
15.8473707016896
 42
1.0
 10
187.655195363229
 20
15.8473707016896
  0
LWPOLYLINE
  5
E0
330
4B
100
AcDbEntity
  8
Skizziergeometrie_ISO_
  6
Continuous
 62
     7
100
AcDbPolyline
 90
        2
 70
     0
 43
0.5
 10
189.655184537377
 20
14.2880685085818
 42
1.0
 10
190.321851204044
 20
14.2880685085818
  0
LWPOLYLINE
  5
E1
330
4B
100
AcDbEntity
  8
Skizziergeometrie_ISO_
  6
Continuous
 62
     7
100
AcDbPolyline
 90
        2
 70
     0
 43
0.5
 10
190.321851204044
 20
20.752698059307
 42
0.76732698797879
 10
189.82741752042
 20
20.8851811655447
  0
LWPOLYLINE
  5
E2
330
4B
100
AcDbEntity
  8
Skizziergeometrie_ISO_
  6
Continuous
 62
     7
100
AcDbPolyline
 90
        2
 70
     0
 43
0.5
 10
186.321857625773
 20
19.9439783665993
 42
1.0
 10
185.655190959106
 20
19.9439783665993
  0
LWPOLYLINE
  5
E3
330
4B
100
AcDbEntity
  8
Skizziergeometrie_ISO_
  6
Continuous
 62
     7
100
AcDbPolyline
 90
        2
 70
     0
 43
0.5
 10
188.15634562976
 20
13.4426441938023
 42
1.0
 10
188.489493932086
 20
14.0201012511681
  0
LWPOLYLINE
  5
E4
330
4B
100
AcDbEntity
  8
Skizziergeometrie_ISO_
  6
Continuous
 62
     7
100
AcDbPolyline
 90
        2
 70
     0
 43
0.5
 10
184.988523283636
 20
19.1539094835628
 42
1.0
 10
184.32185661697
 20
19.1539094835628
  0
LWPOLYLINE
  5
E5
330
4B
100
AcDbEntity
  8
Skizziergeometrie_ISO_
  6
Continuous
 62
     7
100
AcDbPolyline
 90
        2
 70
     0
 43
0.5
 10
184.32185661697
 20
15.8473707016896
 42
1.0
 10
184.988523283636
 20
15.8473707016896
  0
LWPOLYLINE
  5
E6
330
4B
100
AcDbEntity
  8
Skizziergeometrie_ISO_
  6
Continuous
 62
     7
100
AcDbPolyline
 90
        2
 70
     0
 43
0.5
 10
192.5247341876
 20
18.8651809548799
 42
1.00000000000005
 10
192.857882489926
 20
19.4426380122457
  0
LWPOLYLINE
  5
E7
330
4B
100
AcDbEntity
  8
Skizziergeometrie_ISO_
  6
Continuous
 62
     7
100
AcDbPolyline
 90
        2
 70
     0
 43
0.5
 10
192.691308338763
 20
17.1673067592928
 42
1.0
 10
192.691308338763
 20
17.8339734259596
  0
LWPOLYLINE
  5
E8
330
4B
100
AcDbEntity
  8
Skizziergeometrie_ISO_
  6
Continuous
 62
     7
100
AcDbPolyline
 90
        2
 70
     0
 43
0.5
 10
192.857882489926
 20
15.5586421730067
 42
1.00000000000005
 10
192.5247341876
 20
16.1360992303725
  0
MTEXT
  5
EA
330
4B
100
AcDbEntity
  8
Symbole_ISO_
 62
     7
100
AcDbMText
 10
39.980189950303
 20
21.2506400926262
 30
0.0
 40
3.49999994039535
 41
0.0
 71
     5
 72
     1
  1
04.01.2007
  7
CONVERTER_11
 73
     1
 44
1.0
  0
MTEXT
  5
EC
330
4B
100
AcDbEntity
  8
Symbole_ISO_
 62
     7
100
AcDbMText
 10
168.655189950303
 20
22.5006400926262
 30
0.0
 40
2.5
 41
0.0
 71
     5
 72
     1
  1
Scale
  7
CONVERTER_12
 73
     1
 44
1.0
  0
MTEXT
  5
ED
330
4B
100
AcDbEntity
  8
Symbole_ISO_
 62
     7
100
AcDbMText
 10
20.980189950303
 20
13.7506400926262
 30
0.0
 40
2.5
 41
0.0
 71
     4
 72
     1
  1
Sign.
  7
CONVERTER_12
 73
     1
 44
1.0
  0
MTEXT
  5
EE
330
4B
100
AcDbEntity
  8
Symbole_ISO_
 62
     7
100
AcDbMText
 10
20.980189950303
 20
21.2506400926262
 30
0.0
 40
2.5
 41
0.0
 71
     4
 72
     1
  1
Date
  7
CONVERTER_12
 73
     1
 44
1.0
  0
HATCH
  5
EF
330
4B
100
AcDbEntity
  8
Schraffur
  6
Continuous
 62
     7
100
AcDbHatch
 10
0.0
 20
0.0
 30
0.0
210
0.0
220
0.0
230
1.0
  2
SOLID
 70
     1
 71
     1
 91
        1
 92
        1
 93
       14
 72
     2
 10
192.691308338763
 20
19.1539094835628
 40
0.3333333333332746
 50
299.9816405763278
 51
479.9816393688208
 73
     0
 72
     1
 10
192.5247341876
 20
18.8651809548799
 11
191.6551889415
 21
19.3668416737836
 72
     1
 10
191.6551889415
 20
19.3668416737836
 11
191.6551889415
 21
17.8339734259596
 72
     1
 10
191.6551889415
 20
17.8339734259596
 11
192.691308338763
 21
17.8339734259596
 72
     2
 10
192.691308338763
 20
17.5006400926262
 40
0.3333333333333997
 50
270.0
 51
450.0
 73
     0
 72
     1
 10
192.691308338763
 20
17.1673067592928
 11
191.6551889415
 21
17.1673067592928
 72
     1
 10
191.6551889415
 20
17.1673067592928
 11
191.6551889415
 21
15.6344385114688
 72
     1
 10
191.6551889415
 20
15.6344385114688
 11
192.5247341876
 21
16.1360992303725
 72
     2
 10
192.691308338763
 20
15.8473707016896
 40
0.3333333333332619
 50
240.0183606311795
 51
420.0183606311837
 73
     0
 72
     1
 10
192.857882489926
 20
15.5586421730067
 11
191.48842975933
 21
14.7685732899702
 72
     2
 10
191.321855608167
 20
15.0573018186531
 40
0.3333333333339965
 50
60.01836063118353
 51
180.0
 73
     0
 72
     1
 10
190.988522274833
 20
15.0573018186531
 11
190.988522274833
 21
19.9439783665993
 72
     2
 10
191.321855608167
 20
19.9439783665993
 40
0.3333333333332604
 50
180.0
 51
299.9816393688164
 73
     0
 72
     1
 10
191.48842975933
 20
20.2327068952822
 11
192.857882489926
 21
19.4426380122457
 97
       14
330
53
330
91
330
54
330
92
330
55
330
93
330
56
330
57
330
58
330
94
330
59
330
5A
330
5B
330
95
 75
     0
 76
     1
 98
        1
 10
0.0
 20
0.0
  0
HATCH
  5
F0
330
4B
100
AcDbEntity
  8
Schraffur
  6
Continuous
 62
     7
100
AcDbHatch
 10
0.0
 20
0.0
 30
0.0
210
0.0
220
0.0
230
1.0
  2
SOLID
 70
     1
 71
     1
 91
        1
 92
        1
 93
       13
 72
     2
 10
187.253494909038
 20
20.7526980593071
 40
0.2649662124751274
 50
30.00000000000922
 51
180.0
 73
     1
 72
     1
 10
186.988528696562
 20
20.7526980593071
 11
186.988528696563
 21
15.8473707016896
 72
     2
 10
187.321862029896
 20
15.8473707016896
 40
0.3333333333330017
 50
180.0
 51
360.0
 73
     1
 72
     1
 10
187.655195363229
 20
15.8473707016896
 11
187.655195363229
 21
19.2535360148728
 72
     1
 10
187.655195363229
 20
19.2535360148728
 11
188.510852383006
 21
17.7714945827671
 72
     2
 10
188.655189950303
 20
17.8548279161004
 40
0.1666666666662864
 50
210.0000000000623
 51
329.9999999999426
 73
     1
 72
     1
 10
188.7995275176
 20
17.7714945827671
 11
189.655184537377
 21
19.2535360148728
 72
     1
 10
189.655184537377
 20
19.2535360148728
 11
189.655184537377
 21
14.2880685085818
 72
     2
 10
189.98851787071
 20
14.2880685085818
 40
0.3333333333330017
 50
180.0
 51
360.0
 73
     1
 72
     1
 10
190.321851204044
 20
14.2880685085818
 11
190.321851204044
 21
20.752698059307
 72
     2
 10
190.056884991568
 20
20.752698059307
 40
0.2649662124759971
 50
0.0
 51
149.9999999999752
 73
     1
 72
     1
 10
189.82741752042
 20
20.8851811655447
 11
188.655189950303
 21
18.8548234560689
 72
     1
 10
188.655189950303
 20
18.8548234560689
 11
187.482962380186
 21
20.8851811655447
 97
       13
330
62
330
9A
330
61
330
99
330
60
330
5F
330
98
330
5E
330
5D
330
97
330
5C
330
96
330
63
 75
     0
 76
     1
 98
        1
 10
0.0
 20
0.0
  0
HATCH
  5
F1
330
4B
100
AcDbEntity
  8
Schraffur
  6
Continuous
 62
     7
100
AcDbHatch
 10
0.0
 20
0.0
 30
0.0
210
0.0
220
0.0
230
1.0
  2
SOLID
 70
     1
 71
     1
 91
        1
 92
        1
 93
        7
 72
     1
 10
186.321857625773
 20
15.270660658657
 11
186.321857625773
 21
19.9439783665993
 72
     2
 10
185.988524292439
 20
19.9439783665993
 40
0.3333333333339965
 50
0.0
 51
180.0
 73
     1
 72
     1
 10
185.655190959106
 20
19.9439783665993
 11
185.655190959106
 21
15.2706619304882
 72
     2
 10
186.321859827834
 20
15.2706619304882
 40
0.66666886872801
 50
180.0
 51
240.0183606311481
 73
     1
 72
     1
 10
185.988710425088
 20
14.6932029657285
 11
188.15634562976
 21
13.4426441938023
 72
     2
 10
188.322919780923
 20
13.7313727224852
 40
0.3333333333332604
 50
240.0183606311836
 51
420.0183606311837
 73
     1
 72
     1
 10
188.489493932086
 20
14.0201012511681
 11
186.321857625773
 21
15.270660658657
 97
        7
330
9D
330
66
330
9C
330
65
330
9B
330
64
330
67
 75
     0
 76
     1
 98
        1
 10
0.0
 20
0.0
  0
HATCH
  5
F2
330
4B
100
AcDbEntity
  8
Schraffur
  6
Continuous
 62
     7
100
AcDbHatch
 10
0.0
 20
0.0
 30
0.0
210
0.0
220
0.0
230
1.0
  2
SOLID
 70
     1
 71
     1
 91
        1
 92
        1
 93
        4
 72
     1
 10
184.988523283636
 20
19.1539094835628
 11
184.988523283636
 21
15.8473707016896
 72
     2
 10
184.655189950303
 20
15.8473707016896
 40
0.3333333333330017
 50
0.0
 51
180.0
 73
     0
 72
     1
 10
184.32185661697
 20
15.8473707016896
 11
184.32185661697
 21
19.1539094835628
 72
     2
 10
184.655189950303
 20
19.1539094835628
 40
0.3333333333330017
 50
180.0
 51
360.0
 73
     0
 97
        4
330
68
330
9E
330
69
330
9F
 75
     0
 76
     1
 98
        1
 10
0.0
 20
0.0
  0
ENDBLK
  5
4D
330
4B
100
AcDbEntity
  8
0
100
AcDbBlockEnd
  0
BLOCK
  5
4F
330
4E
100
AcDbEntity
  8
0
100
AcDbBlockBegin
  2
Ränder_Ilme_Rahmen_A4_quer
 70
     0
 10
0.0
 20
0.0
 30
0.0
  3
Ränder_Ilme_Rahmen_A4_quer
  1

  0
LWPOLYLINE
  5
F8
330
4E
100
AcDbEntity
  8
Skizziergeometrie_ISO_
  6
Continuous
 62
     7
100
AcDbPolyline
 90
        2
 70
     0
 43
0.5
 10
287.0
 20
190.0
 10
287.0
 20
10.0
  0
LWPOLYLINE
  5
F9
330
4E
100
AcDbEntity
  8
Skizziergeometrie_ISO_
  6
Continuous
 62
     7
100
AcDbPolyline
 90
        2
 70
     0
 43
0.5
 10
148.5
 20
210.0
 10
148.5
 20
196.0
  0
LWPOLYLINE
  5
FA
330
4E
100
AcDbEntity
  8
Skizziergeometrie_ISO_
  6
Continuous
 62
     7
100
AcDbPolyline
 90
        2
 70
     0
 43
0.5
 10
9.99999999999998
 20
9.99999999999995
 10
287.0
 20
10.0
  0
LWPOLYLINE
  5
FB
330
4E
100
AcDbEntity
  8
Skizziergeometrie_ISO_
  6
Continuous
 62
     7
100
AcDbPolyline
 90
        2
 70
     0
 43
0.5
 10
10.0
 20
190.0
 10
287.0
 20
190.0
  0
LWPOLYLINE
  5
FC
330
4E
100
AcDbEntity
  8
Skizziergeometrie_ISO_
  6
Continuous
 62
     7
100
AcDbPolyline
 90
        2
 70
     0
 43
0.5
 10
9.99999999999998
 20
9.99999999999995
 10
10.0
 20
190.0
  0
MTEXT
  5
FD
330
4E
100
AcDbEntity
  8
Symbole_ISO_
 62
     7
100
AcDbMText
 10
148.5
 20
196.0
 30
0.0
 40
3.5
 41
0.0
 71
     2
 72
     1
  1
Diritti riservati     All rights reseved
  7
CONVERTER_12
 73
     1
 44
1.0
  0
ENDBLK
  5
50
330
4E
100
AcDbEntity
  8
0
100
AcDbBlockEnd
  0
BLOCK
  5
343
330
33C
100
AcDbEntity
  8
0
100
AcDbBlockBegin
  2
*D3
 70
     1
 10
0.0
 20
0.0
 30
0.0
  3
*D3
  1

  0
LINE
  5
33D
330
33C
100
AcDbEntity
  8
Bemaßungen_TC_020513_DIN_
  6
Continuous
 62
     7
100
AcDbLine
 10
547.1767644145314
 20
242.960075867801
 30
0.0
 11
547.1767644145314
 21
185.960075867801
 31
0.0
  0
LINE
  5
33E
330
33C
100
AcDbEntity
  8
Bemaßungen_TC_020513_DIN_
  6
Continuous
 62
     7
100
AcDbLine
 10
481.6767644145339
 20
242.960075867801
 30
0.0
 11
551.1767644145314
 21
242.960075867801
 31
0.0
  0
LINE
  5
33F
330
33C
100
AcDbEntity
  8
Bemaßungen_TC_020513_DIN_
  6
Continuous
 62
     7
100
AcDbLine
 10
493.176764414531
 20
185.960075867801
 30
0.0
 11
551.1767644145314
 21
185.960075867801
 31
0.0
  0
SOLID
  5
340
330
33C
100
AcDbEntity
  8
Bemaßungen_TC_020513_DIN_
 62
     7
100
AcDbTrace
 10
547.8350269024684
 20
237.960075867801
 30
0.0
 11
546.5185019265944
 21
237.960075867801
 31
0.0
 12
547.1767644145314
 22
242.960075867801
 32
0.0
 13
547.1767644145314
 23
242.960075867801
 33
0.0
  0
SOLID
  5
341
330
33C
100
AcDbEntity
  8
Bemaßungen_TC_020513_DIN_
 62
     7
100
AcDbTrace
 10
546.5185019265944
 20
190.960075867801
 30
0.0
 11
547.8350269024684
 21
190.960075867801
 31
0.0
 12
547.1767644145314
 22
185.960075867801
 32
0.0
 13
547.1767644145314
 23
185.960075867801
 33
0.0
  0
MTEXT
  5
342
330
33C
100
AcDbEntity
  8
Bemaßungen_TC_020513_DIN_
 62
     7
100
AcDbMText
 10
541.8877402312186
 20
220.2697666363314
 30
0.0
 40
7.0
 41
0.0
 71
     7
 72
     1
  1
57
  7
CONVERTER_15
 11
0.0
 21
1.0
 31
0.0
 73
     1
 44
0.60024009603842
  0
ENDBLK
  5
344
330
33C
100
AcDbEntity
  8
0
100
AcDbBlockEnd
  0
BLOCK
  5
350
330
347
100
AcDbEntity
  8
0
100
AcDbBlockBegin
  2
*D4
 70
     1
 10
0.0
 20
0.0
 30
0.0
  3
*D4
  1

  0
LINE
  5
348
330
347
100
AcDbEntity
  8
Bemaßungen_TC_020513_DIN_
  6
Continuous
 62
     7
100
AcDbLine
 10
505.2340216135781
 20
199.960075867801
 30
0.0
 11
505.2340216135781
 21
189.960075867801
 31
0.0
  0
LINE
  5
349
330
347
100
AcDbEntity
  8
Bemaßungen_TC_020513_DIN_
  6
Continuous
 62
     7
100
AcDbLine
 10
505.2340216135781
 20
189.960075867801
 30
0.0
 11
505.2340216135781
 21
185.960075867801
 31
0.0
  0
LINE
  5
34A
330
347
100
AcDbEntity
  8
Bemaßungen_TC_020513_DIN_
  6
Continuous
 62
     7
100
AcDbLine
 10
505.2340216135781
 20
185.960075867801
 30
0.0
 11
505.2340216135781
 21
170.988329619506
 31
0.0
  0
LINE
  5
34B
330
347
100
AcDbEntity
  8
Bemaßungen_TC_020513_DIN_
  6
Continuous
 62
     7
100
AcDbLine
 10
493.176764414531
 20
189.960075867801
 30
0.0
 11
509.2340216135781
 21
189.960075867801
 31
0.0
  0
LINE
  5
34C
330
347
100
AcDbEntity
  8
Bemaßungen_TC_020513_DIN_
  6
Continuous
 62
     7
100
AcDbLine
 10
493.176764414531
 20
185.960075867801
 30
0.0
 11
509.2340216135781
 21
185.960075867801
 31
0.0
  0
SOLID
  5
34D
330
347
100
AcDbEntity
  8
Bemaßungen_TC_020513_DIN_
 62
     7
100
AcDbTrace
 10
504.5757591256411
 20
194.960075867801
 30
0.0
 11
505.892284101515
 21
194.960075867801
 31
0.0
 12
505.2340216135781
 22
189.960075867801
 32
0.0
 13
505.2340216135781
 23
189.960075867801
 33
0.0
  0
SOLID
  5
34E
330
347
100
AcDbEntity
  8
Bemaßungen_TC_020513_DIN_
 62
     7
100
AcDbTrace
 10
505.892284101515
 20
180.960075867801
 30
0.0
 11
504.5757591256411
 21
180.960075867801
 31
0.0
 12
505.2340216135781
 22
185.960075867801
 32
0.0
 13
505.2340216135781
 23
185.960075867801
 33
0.0
  0
MTEXT
  5
34F
330
347
100
AcDbEntity
  8
Bemaßungen_TC_020513_DIN_
 62
     7
100
AcDbMText
 10
500.134021613578
 20
170.988329619506
 30
0.0
 40
7.0
 41
0.0
 71
     7
 72
     1
  1
4
  7
CONVERTER_15
 11
0.0
 21
1.0
 31
0.0
 73
     1
 44
0.60024009603842
  0
ENDBLK
  5
351
330
347
100
AcDbEntity
  8
0
100
AcDbBlockEnd
  0
BLOCK
  5
35B
330
354
100
AcDbEntity
  8
0
100
AcDbBlockBegin
  2
*D5
 70
     1
 10
0.0
 20
0.0
 30
0.0
  3
*D5
  1

  0
LINE
  5
355
330
354
100
AcDbEntity
  8
Bemaßungen_TC_020513_DIN_
  6
Continuous
 62
     7
100
AcDbLine
 10
492.176764414531
 20
141.9600863034023
 30
0.0
 11
435.176764414531
 21
141.9600863034023
 31
0.0
  0
LINE
  5
356
330
354
100
AcDbEntity
  8
Bemaßungen_TC_020513_DIN_
  6
Continuous
 62
     7
100
AcDbLine
 10
492.176764414531
 20
183.9600758678007
 30
0.0
 11
492.176764414531
 21
137.9600863034023
 31
0.0
  0
LINE
  5
357
330
354
100
AcDbEntity
  8
Bemaßungen_TC_020513_DIN_
  6
Continuous
 62
     7
100
AcDbLine
 10
435.176764414531
 20
183.9600758678007
 30
0.0
 11
435.176764414531
 21
137.9600863034023
 31
0.0
  0
SOLID
  5
358
330
354
100
AcDbEntity
  8
Bemaßungen_TC_020513_DIN_
 62
     7
100
AcDbTrace
 10
487.176764414531
 20
141.3018238154653
 30
0.0
 11
487.176764414531
 21
142.6183487913393
 31
0.0
 12
492.176764414531
 22
141.9600863034023
 32
0.0
 13
492.176764414531
 23
141.9600863034023
 33
0.0
  0
SOLID
  5
359
330
354
100
AcDbEntity
  8
Bemaßungen_TC_020513_DIN_
 62
     7
100
AcDbTrace
 10
440.176764414531
 20
142.6183487913393
 30
0.0
 11
440.176764414531
 21
141.3018238154653
 31
0.0
 12
435.176764414531
 22
141.9600863034023
 32
0.0
 13
435.176764414531
 23
141.9600863034023
 33
0.0
  0
MTEXT
  5
35A
330
354
100
AcDbEntity
  8
Bemaßungen_TC_020513_DIN_
 62
     7
100
AcDbMText
 10
461.5214618944841
 20
146.5874015234756
 30
0.0
 40
7.0
 41
0.0
 71
     7
 72
     1
  1
52
  7
CONVERTER_15
 11
0.9999999999882478
 21
4.848136811095759E-6
 31
0.0
 73
     1
 44
0.60024009603842
  0
ENDBLK
  5
35C
330
354
100
AcDbEntity
  8
0
100
AcDbBlockEnd
  0
BLOCK
  5
366
330
35F
100
AcDbEntity
  8
0
100
AcDbBlockBegin
  2
*D6
 70
     1
 10
0.0
 20
0.0
 30
0.0
  3
*D6
  1

  0
LINE
  5
360
330
35F
100
AcDbEntity
  8
Bemaßungen_TC_020513_DIN_
  6
Continuous
 62
     7
100
AcDbLine
 10
486.176764414533
 20
160.9600863034023
 30
0.0
 11
441.176764414533
 21
160.9600863034023
 31
0.0
  0
LINE
  5
361
330
35F
100
AcDbEntity
  8
Bemaßungen_TC_020513_DIN_
  6
Continuous
 62
     7
100
AcDbLine
 10
486.176764414533
 20
178.9600758678007
 30
0.0
 11
486.176764414533
 21
156.9600863034023
 31
0.0
  0
LINE
  5
362
330
35F
100
AcDbEntity
  8
Bemaßungen_TC_020513_DIN_
  6
Continuous
 62
     7
100
AcDbLine
 10
441.176764414533
 20
178.9600758678007
 30
0.0
 11
441.176764414533
 21
156.9600863034023
 31
0.0
  0
SOLID
  5
363
330
35F
100
AcDbEntity
  8
Bemaßungen_TC_020513_DIN_
 62
     7
100
AcDbTrace
 10
481.176764414533
 20
160.3018238154653
 30
0.0
 11
481.176764414533
 21
161.6183487913393
 31
0.0
 12
486.176764414533
 22
160.9600863034023
 32
0.0
 13
486.176764414533
 23
160.9600863034023
 33
0.0
  0
SOLID
  5
364
330
35F
100
AcDbEntity
  8
Bemaßungen_TC_020513_DIN_
 62
     7
100
AcDbTrace
 10
446.176764414533
 20
161.6183487913393
 30
0.0
 11
446.176764414533
 21
160.3018238154653
 31
0.0
 12
441.176764414533
 22
160.9600863034023
 32
0.0
 13
441.176764414533
 23
160.9600863034023
 33
0.0
  0
MTEXT
  5
365
330
35F
100
AcDbEntity
  8
Bemaßungen_TC_020513_DIN_
 62
     7
100
AcDbMText
 10
461.3193404756592
 20
165.5874014386332
 30
0.0
 40
7.0
 41
0.0
 71
     7
 72
     1
  1
40
  7
CONVERTER_15
 11
0.9999999999882478
 21
4.848136811095759E-6
 31
0.0
 73
     1
 44
0.60024009603842
  0
ENDBLK
  5
367
330
35F
100
AcDbEntity
  8
0
100
AcDbBlockEnd
  0
BLOCK
  5
371
330
36A
100
AcDbEntity
  8
0
100
AcDbBlockBegin
  2
*D7
 70
     1
 10
0.0
 20
0.0
 30
0.0
  3
*D7
  1

  0
LINE
  5
36B
330
36A
100
AcDbEntity
  8
Bemaßungen_TC_020513_DIN_
  6
Continuous
 62
     7
100
AcDbLine
 10
491.926764414541
 20
325.4600863034022
 30
0.0
 11
415.926764414535
 21
325.4600863034022
 31
0.0
  0
LINE
  5
36C
330
36A
100
AcDbEntity
  8
Bemaßungen_TC_020513_DIN_
  6
Continuous
 62
     7
100
AcDbLine
 10
491.926764414541
 20
237.710075867801
 30
0.0
 11
491.926764414541
 21
329.4600863034022
 31
0.0
  0
LINE
  5
36D
330
36A
100
AcDbEntity
  8
Bemaßungen_TC_020513_DIN_
  6
Continuous
 62
     7
100
AcDbLine
 10
415.926764414535
 20
295.460075867801
 30
0.0
 11
415.926764414535
 21
329.4600863034022
 31
0.0
  0
SOLID
  5
36E
330
36A
100
AcDbEntity
  8
Bemaßungen_TC_020513_DIN_
 62
     7
100
AcDbTrace
 10
486.926764414541
 20
324.8018238154653
 30
0.0
 11
486.926764414541
 21
326.1183487913392
 31
0.0
 12
491.926764414541
 22
325.4600863034022
 32
0.0
 13
491.926764414541
 23
325.4600863034022
 33
0.0
  0
SOLID
  5
36F
330
36A
100
AcDbEntity
  8
Bemaßungen_TC_020513_DIN_
 62
     7
100
AcDbTrace
 10
420.926764414535
 20
326.1183487913392
 30
0.0
 11
420.926764414535
 21
324.8018238154653
 31
0.0
 12
415.926764414535
 22
325.4600863034022
 32
0.0
 13
415.926764414535
 23
325.4600863034022
 33
0.0
  0
MTEXT
  5
370
330
36A
100
AcDbEntity
  8
Bemaßungen_TC_020513_DIN_
 62
     7
100
AcDbMText
 10
451.7674987294162
 20
330.7777423670061
 30
0.0
 40
7.0
 41
0.0
 71
     7
 72
     1
  1
76
  7
CONVERTER_15
 11
0.9999999999882478
 21
4.848136811095759E-6
 31
0.0
 73
     1
 44
0.60024009603842
  0
ENDBLK
  5
372
330
36A
100
AcDbEntity
  8
0
100
AcDbBlockEnd
  0
BLOCK
  5
37C
330
375
100
AcDbEntity
  8
0
100
AcDbBlockBegin
  2
*D8
 70
     1
 10
0.0
 20
0.0
 30
0.0
  3
*D8
  1

  0
LINE
  5
376
330
375
100
AcDbEntity
  8
Bemaßungen_TC_020513_DIN_
  6
Continuous
 62
     7
100
AcDbLine
 10
320.778696957993
 20
141.9600967390173
 30
0.0
 11
227.278696957993
 21
141.9600967390173
 31
0.0
  0
LINE
  5
377
330
375
100
AcDbEntity
  8
Bemaßungen_TC_020513_DIN_
  6
Continuous
 62
     7
100
AcDbLine
 10
320.778696957993
 20
183.9600758678011
 30
0.0
 11
320.778696957993
 21
137.9600967390173
 31
0.0
  0
LINE
  5
378
330
375
100
AcDbEntity
  8
Bemaßungen_TC_020513_DIN_
  6
Continuous
 62
     7
100
AcDbLine
 10
227.278696957993
 20
183.9600758678011
 30
0.0
 11
227.278696957993
 21
137.9600967390173
 31
0.0
  0
SOLID
  5
379
330
375
100
AcDbEntity
  8
Bemaßungen_TC_020513_DIN_
 62
     7
100
AcDbTrace
 10
315.778696957993
 20
141.3018342510803
 30
0.0
 11
315.778696957993
 21
142.6183592269543
 31
0.0
 12
320.778696957993
 22
141.9600967390173
 32
0.0
 13
320.778696957993
 23
141.9600967390173
 33
0.0
  0
SOLID
  5
37A
330
375
100
AcDbEntity
  8
Bemaßungen_TC_020513_DIN_
 62
     7
100
AcDbTrace
 10
232.278696957993
 20
142.6183592269543
 30
0.0
 11
232.278696957993
 21
141.3018342510803
 31
0.0
 12
227.278696957993
 22
141.9600967390173
 32
0.0
 13
227.278696957993
 23
141.9600967390173
 33
0.0
  0
MTEXT
  5
37B
330
375
100
AcDbEntity
  8
Bemaßungen_TC_020513_DIN_
 62
     7
100
AcDbMText
 10
271.1760352816982
 20
149.5878608004934
 30
0.0
 40
7.0
 41
0.0
 71
     7
 72
     1
  1
93,5
  7
CONVERTER_15
 11
0.9999999999882478
 21
4.848136811095759E-6
 31
0.0
 73
     1
 44
0.60024009603842
  0
ENDBLK
  5
37D
330
375
100
AcDbEntity
  8
0
100
AcDbBlockEnd
  0
BLOCK
  5
387
330
380
100
AcDbEntity
  8
0
100
AcDbBlockBegin
  2
*D9
 70
     1
 10
0.0
 20
0.0
 30
0.0
  3
*D9
  1

  0
LINE
  5
381
330
380
100
AcDbEntity
  8
Bemaßungen_TC_020513_DIN_
  6
Continuous
 62
     7
100
AcDbLine
 10
315.028696957993
 20
160.9600863034021
 30
0.0
 11
233.028696957993
 21
160.9600863034021
 31
0.0
  0
LINE
  5
382
330
380
100
AcDbEntity
  8
Bemaßungen_TC_020513_DIN_
  6
Continuous
 62
     7
100
AcDbLine
 10
315.028696957993
 20
178.960075867801
 30
0.0
 11
315.028696957993
 21
156.9600863034021
 31
0.0
  0
LINE
  5
383
330
380
100
AcDbEntity
  8
Bemaßungen_TC_020513_DIN_
  6
Continuous
 62
     7
100
AcDbLine
 10
233.028696957993
 20
178.960075867801
 30
0.0
 11
233.028696957993
 21
156.9600863034021
 31
0.0
  0
SOLID
  5
384
330
380
100
AcDbEntity
  8
Bemaßungen_TC_020513_DIN_
 62
     7
100
AcDbTrace
 10
310.028696957993
 20
160.3018238154651
 30
0.0
 11
310.028696957993
 21
161.6183487913391
 31
0.0
 12
315.028696957993
 22
160.9600863034021
 32
0.0
 13
315.028696957993
 23
160.9600863034021
 33
0.0
  0
SOLID
  5
385
330
380
100
AcDbEntity
  8
Bemaßungen_TC_020513_DIN_
 62
     7
100
AcDbTrace
 10
238.028696957993
 20
161.6183487913391
 30
0.0
 11
238.028696957993
 21
160.3018238154651
 31
0.0
 12
233.028696957993
 22
160.9600863034021
 32
0.0
 13
233.028696957993
 23
160.9600863034021
 33
0.0
  0
MTEXT
  5
386
330
380
100
AcDbEntity
  8
Bemaßungen_TC_020513_DIN_
 62
     7
100
AcDbMText
 10
271.9044312728711
 20
166.2777424518485
 30
0.0
 40
7.0
 41
0.0
 71
     7
 72
     1
  1
82
  7
CONVERTER_15
 11
0.9999999999882478
 21
4.848136811095759E-6
 31
0.0
 73
     1
 44
0.60024009603842
  0
ENDBLK
  5
388
330
380
100
AcDbEntity
  8
0
100
AcDbBlockEnd
  0
BLOCK
  5
392
330
38B
100
AcDbEntity
  8
0
100
AcDbBlockBegin
  2
*D10
 70
     1
 10
0.0
 20
0.0
 30
0.0
  3
*D10
  1

  0
LINE
  5
38C
330
38B
100
AcDbEntity
  8
Bemaßungen_TC_020513_DIN_
  6
Continuous
 62
     7
100
AcDbLine
 10
207.7786969579928
 20
190.460075867801
 30
0.0
 11
207.7786969579928
 21
210.460075867801
 31
0.0
  0
LINE
  5
38D
330
38B
100
AcDbEntity
  8
Bemaßungen_TC_020513_DIN_
  6
Continuous
 62
     7
100
AcDbLine
 10
225.778696957993
 20
190.460075867801
 30
0.0
 11
203.7786969579928
 21
190.460075867801
 31
0.0
  0
LINE
  5
38E
330
38B
100
AcDbEntity
  8
Bemaßungen_TC_020513_DIN_
  6
Continuous
 62
     7
100
AcDbLine
 10
225.778696957993
 20
210.460075867801
 30
0.0
 11
203.7786969579928
 21
210.460075867801
 31
0.0
  0
SOLID
  5
38F
330
38B
100
AcDbEntity
  8
Bemaßungen_TC_020513_DIN_
 62
     7
100
AcDbTrace
 10
207.1204344700558
 20
195.460075867801
 30
0.0
 11
208.4369594459298
 21
195.460075867801
 31
0.0
 12
207.7786969579928
 22
190.460075867801
 32
0.0
 13
207.7786969579928
 23
190.460075867801
 33
0.0
  0
SOLID
  5
390
330
38B
100
AcDbEntity
  8
Bemaßungen_TC_020513_DIN_
 62
     7
100
AcDbTrace
 10
208.4369594459298
 20
205.460075867801
 30
0.0
 11
207.1204344700558
 21
205.460075867801
 31
0.0
 12
207.7786969579928
 22
210.460075867801
 32
0.0
 13
207.7786969579928
 23
210.460075867801
 33
0.0
  0
MTEXT
  5
391
330
38B
100
AcDbEntity
  8
Bemaßungen_TC_020513_DIN_
 62
     7
100
AcDbMText
 10
202.4610233885955
 20
194.9986752311473
 30
0.0
 40
7.0
 41
0.0
 71
     7
 72
     1
  1
M20
  7
CONVERTER_15
 11
0.0
 21
1.0
 31
0.0
 73
     1
 44
0.60024009603842
  0
ENDBLK
  5
393
330
38B
100
AcDbEntity
  8
0
100
AcDbBlockEnd
  0
BLOCK
  5
39D
330
396
100
AcDbEntity
  8
0
100
AcDbBlockBegin
  2
*D11
 70
     1
 10
0.0
 20
0.0
 30
0.0
  3
*D11
  1

  0
LINE
  5
397
330
396
100
AcDbEntity
  8
Bemaßungen_TC_020513_DIN_
  6
Continuous
 62
     7
100
AcDbLine
 10
352.2786969579927
 20
190.460075867801
 30
0.0
 11
352.2786969579927
 21
210.460075867801
 31
0.0
  0
LINE
  5
398
330
396
100
AcDbEntity
  8
Bemaßungen_TC_020513_DIN_
  6
Continuous
 62
     7
100
AcDbLine
 10
322.2786969579931
 20
190.460075867801
 30
0.0
 11
356.2786969579927
 21
190.460075867801
 31
0.0
  0
LINE
  5
399
330
396
100
AcDbEntity
  8
Bemaßungen_TC_020513_DIN_
  6
Continuous
 62
     7
100
AcDbLine
 10
316.9617096598851
 20
210.460075867801
 30
0.0
 11
356.2786969579927
 21
210.460075867801
 31
0.0
  0
SOLID
  5
39A
330
396
100
AcDbEntity
  8
Bemaßungen_TC_020513_DIN_
 62
     7
100
AcDbTrace
 10
351.6204344700558
 20
195.460075867801
 30
0.0
 11
352.9369594459297
 21
195.460075867801
 31
0.0
 12
352.2786969579927
 22
190.460075867801
 32
0.0
 13
352.2786969579927
 23
190.460075867801
 33
0.0
  0
SOLID
  5
39B
330
396
100
AcDbEntity
  8
Bemaßungen_TC_020513_DIN_
 62
     7
100
AcDbTrace
 10
352.9369594459297
 20
205.460075867801
 30
0.0
 11
351.6204344700558
 21
205.460075867801
 31
0.0
 12
352.2786969579927
 22
210.460075867801
 32
0.0
 13
352.2786969579927
 23
210.460075867801
 33
0.0
  0
MTEXT
  5
39C
330
396
100
AcDbEntity
  8
Bemaßungen_TC_020513_DIN_
 62
     7
100
AcDbMText
 10
346.9610233885955
 20
194.9986752311473
 30
0.0
 40
7.0
 41
0.0
 71
     7
 72
     1
  1
M20
  7
CONVERTER_15
 11
0.0
 21
1.0
 31
0.0
 73
     1
 44
0.60024009603842
  0
ENDBLK
  5
39E
330
396
100
AcDbEntity
  8
0
100
AcDbBlockEnd
  0
ENDSEC
  0
SECTION
  2
ENTITIES
  0
INSERT
  5
51
330
1F
100
AcDbEntity
  8
0
100
AcDbBlockReference
  2
Schriftfelder_Ilme
 10
174.039620099394
 20
-0.0012801852525
 30
0.0
 41
2.0
 42
2.0
 43
2.0
  0
INSERT
  5
52
330
1F
100
AcDbEntity
  8
0
100
AcDbBlockReference
  2
Ränder_Ilme_Rahmen_A4_quer
 10
0.0
 20
0.0
 30
0.0
 41
2.0
 42
2.0
 43
2.0
  0
POINT
  5
FE
330
1F
100
AcDbEntity
  8
Bemaßungen_TC_020513_DIN_
 62
     7
100
AcDbPoint
 10
479.676764414534
 20
242.960075867801
 30
0.0
  0
POINT
  5
FF
330
1F
100
AcDbEntity
  8
Bemaßungen_TC_020513_DIN_
 62
     7
100
AcDbPoint
 10
491.176764414531
 20
185.960075867801
 30
0.0
  0
POINT
  5
100
330
1F
100
AcDbEntity
  8
Bemaßungen_TC_020513_DIN_
 62
     7
100
AcDbPoint
 10
491.176764414531
 20
189.960075867801
 30
0.0
  0
POINT
  5
101
330
1F
100
AcDbEntity
  8
Bemaßungen_TC_020513_DIN_
 62
     7
100
AcDbPoint
 10
491.176764414531
 20
185.960075867801
 30
0.0
  0
POINT
  5
102
330
1F
100
AcDbEntity
  8
Bemaßungen_TC_020513_DIN_
 62
     7
100
AcDbPoint
 10
492.176764414531
 20
185.960075867801
 30
0.0
  0
POINT
  5
103
330
1F
100
AcDbEntity
  8
Bemaßungen_TC_020513_DIN_
 62
     7
100
AcDbPoint
 10
435.176764414531
 20
185.960075867801
 30
0.0
  0
POINT
  5
104
330
1F
100
AcDbEntity
  8
Bemaßungen_TC_020513_DIN_
 62
     7
100
AcDbPoint
 10
486.176764414533
 20
180.960075867801
 30
0.0
  0
POINT
  5
105
330
1F
100
AcDbEntity
  8
Bemaßungen_TC_020513_DIN_
 62
     7
100
AcDbPoint
 10
441.176764414533
 20
180.960075867801
 30
0.0
  0
POINT
  5
106
330
1F
100
AcDbEntity
  8
Bemaßungen_TC_020513_DIN_
 62
     7
100
AcDbPoint
 10
491.926764414541
 20
235.710075867801
 30
0.0
  0
POINT
  5
107
330
1F
100
AcDbEntity
  8
Bemaßungen_TC_020513_DIN_
 62
     7
100
AcDbPoint
 10
415.926764414535
 20
293.460075867801
 30
0.0
  0
POINT
  5
108
330
1F
100
AcDbEntity
  8
Bemaßungen_TC_020513_DIN_
 62
     7
100
AcDbPoint
 10
320.778696957993
 20
185.960075867801
 30
0.0
  0
POINT
  5
109
330
1F
100
AcDbEntity
  8
Bemaßungen_TC_020513_DIN_
 62
     7
100
AcDbPoint
 10
227.278696957993
 20
185.960075867801
 30
0.0
  0
POINT
  5
10A
330
1F
100
AcDbEntity
  8
Bemaßungen_TC_020513_DIN_
 62
     7
100
AcDbPoint
 10
315.028696957993
 20
180.960075867801
 30
0.0
  0
POINT
  5
10B
330
1F
100
AcDbEntity
  8
Bemaßungen_TC_020513_DIN_
 62
     7
100
AcDbPoint
 10
233.028696957993
 20
180.960075867801
 30
0.0
  0
POINT
  5
10C
330
1F
100
AcDbEntity
  8
Bemaßungen_TC_020513_DIN_
 62
     7
100
AcDbPoint
 10
227.778696957993
 20
190.460075867801
 30
0.0
  0
POINT
  5
10D
330
1F
100
AcDbEntity
  8
Bemaßungen_TC_020513_DIN_
 62
     7
100
AcDbPoint
 10
227.778696957993
 20
210.460075867801
 30
0.0
  0
POINT
  5
10E
330
1F
100
AcDbEntity
  8
Bemaßungen_TC_020513_DIN_
 62
     7
100
AcDbPoint
 10
320.278696957993
 20
190.460075867801
 30
0.0
  0
POINT
  5
10F
330
1F
100
AcDbEntity
  8
Bemaßungen_TC_020513_DIN_
 62
     7
100
AcDbPoint
 10
314.961709659885
 20
210.460075867801
 30
0.0
  0
POINT
  5
110
330
1F
100
AcDbEntity
  8
Bemaßungen_TC_020513_DIN_
 62
     7
100
AcDbPoint
 10
479.676764414534
 20
242.960075867801
 30
0.0
  0
POINT
  5
111
330
1F
100
AcDbEntity
  8
Bemaßungen_TC_020513_DIN_
 62
     7
100
AcDbPoint
 10
491.176764414531
 20
185.960075867801
 30
0.0
  0
POINT
  5
112
330
1F
100
AcDbEntity
  8
Bemaßungen_TC_020513_DIN_
 62
     7
100
AcDbPoint
 10
491.176764414531
 20
189.960075867801
 30
0.0
  0
POINT
  5
113
330
1F
100
AcDbEntity
  8
Bemaßungen_TC_020513_DIN_
 62
     7
100
AcDbPoint
 10
491.176764414531
 20
185.960075867801
 30
0.0
  0
POINT
  5
114
330
1F
100
AcDbEntity
  8
Bemaßungen_TC_020513_DIN_
 62
     7
100
AcDbPoint
 10
492.176764414531
 20
185.960075867801
 30
0.0
  0
POINT
  5
115
330
1F
100
AcDbEntity
  8
Bemaßungen_TC_020513_DIN_
 62
     7
100
AcDbPoint
 10
435.176764414531
 20
185.960075867801
 30
0.0
  0
POINT
  5
116
330
1F
100
AcDbEntity
  8
Bemaßungen_TC_020513_DIN_
 62
     7
100
AcDbPoint
 10
486.176764414533
 20
180.960075867801
 30
0.0
  0
POINT
  5
117
330
1F
100
AcDbEntity
  8
Bemaßungen_TC_020513_DIN_
 62
     7
100
AcDbPoint
 10
441.176764414533
 20
180.960075867801
 30
0.0
  0
POINT
  5
118
330
1F
100
AcDbEntity
  8
Bemaßungen_TC_020513_DIN_
 62
     7
100
AcDbPoint
 10
491.926764414541
 20
235.710075867801
 30
0.0
  0
POINT
  5
119
330
1F
100
AcDbEntity
  8
Bemaßungen_TC_020513_DIN_
 62
     7
100
AcDbPoint
 10
415.926764414535
 20
293.460075867801
 30
0.0
  0
POINT
  5
11A
330
1F
100
AcDbEntity
  8
Bemaßungen_TC_020513_DIN_
 62
     7
100
AcDbPoint
 10
320.778696957993
 20
185.960075867801
 30
0.0
  0
POINT
  5
11B
330
1F
100
AcDbEntity
  8
Bemaßungen_TC_020513_DIN_
 62
     7
100
AcDbPoint
 10
227.278696957993
 20
185.960075867801
 30
0.0
  0
POINT
  5
11C
330
1F
100
AcDbEntity
  8
Bemaßungen_TC_020513_DIN_
 62
     7
100
AcDbPoint
 10
315.028696957993
 20
180.960075867801
 30
0.0
  0
POINT
  5
11D
330
1F
100
AcDbEntity
  8
Bemaßungen_TC_020513_DIN_
 62
     7
100
AcDbPoint
 10
233.028696957993
 20
180.960075867801
 30
0.0
  0
POINT
  5
11E
330
1F
100
AcDbEntity
  8
Bemaßungen_TC_020513_DIN_
 62
     7
100
AcDbPoint
 10
227.778696957993
 20
190.460075867801
 30
0.0
  0
POINT
  5
11F
330
1F
100
AcDbEntity
  8
Bemaßungen_TC_020513_DIN_
 62
     7
100
AcDbPoint
 10
227.778696957993
 20
210.460075867801
 30
0.0
  0
POINT
  5
120
330
1F
100
AcDbEntity
  8
Bemaßungen_TC_020513_DIN_
 62
     7
100
AcDbPoint
 10
320.278696957993
 20
190.460075867801
 30
0.0
  0
POINT
  5
121
330
1F
100
AcDbEntity
  8
Bemaßungen_TC_020513_DIN_
 62
     7
100
AcDbPoint
 10
314.961709659885
 20
210.460075867801
 30
0.0
  0
LINE
  5
1F8
102
{ACAD_REACTORS
330
3A1
330
3A1
102
}
330
1F
100
AcDbEntity
  8
Symbole_TC_020513_DIN_
  6
Continuous
 62
     7
100
AcDbLine
 10
488.954376653906
 20
194.169372691584
 30
0.0
 11
487.770285627475
 21
194.744843327869
 31
0.0
  0
LINE
  5
1F9
102
{ACAD_REACTORS
330
3A1
330
3A1
102
}
330
1F
100
AcDbEntity
  8
Symbole_TC_020513_DIN_
  6
Continuous
 62
     7
100
AcDbLine
 10
487.770285627475
 20
194.744843327869
 30
0.0
 11
486.176764414533
 21
189.960075867801
 31
0.0
  0
LINE
  5
1FA
102
{ACAD_REACTORS
330
3A1
330
3A1
102
}
330
1F
100
AcDbEntity
  8
Symbole_TC_020513_DIN_
  6
Continuous
 62
     7
100
AcDbLine
 10
486.176764414533
 20
189.960075867801
 30
0.0
 11
488.954376653906
 21
194.169372691584
 31
0.0
  0
SPLINE
  5
22D
330
1F
100
AcDbEntity
  8
Sichtbare_Kanten_TC_020513_DIN_
  6
Continuous
 62
     7
100
AcDbSpline
210
0.0
220
0.0
230
1.0
 70
     8
 71
     3
 72
    31
 73
    27
 74
    25
 42
0.0000000001
 43
0.0000000001
 44
0.00000001
 40
0.0
 40
0.0
 40
0.0
 40
0.0
 40
0.1219910706649758
 40
0.2439821410937586
 40
0.2744927928497983
 40
0.304998277688392
 40
0.3355060166820055
 40
0.3660150104577377
 40
0.3964962447160994
 40
0.4269772475009018
 40
0.4574582426059409
 40
0.4879391834885604
 40
0.5183893168390126
 40
0.5488395626253662
 40
0.5792897866858668
 40
0.6097398870052873
 40
0.6401590604005906
 40
0.6705782787843967
 40
0.7009974709633493
 40
0.7314168909974582
 40
0.7618097924730933
 40
0.7922013982117198
 40
0.8225906778156962
 40
0.852985257713425
 40
0.9743051842857661
 40
1.095625110606666
 40
1.095625110606666
 40
1.095625110606666
 40
1.095625110606666
 10
268.728696957993
 20
246.787292586514
 30
0.0
 10
268.6879874186018
 20
246.785263894173
 30
0.0
 10
268.6065683398981
 20
246.781206509495
 30
0.0
 10
268.5176502752966
 20
246.7564737672789
 30
0.0
 10
268.460742590656
 20
246.7345404912002
 30
0.0
 10
268.4327818278975
 20
246.7223006904198
 30
0.0
 10
268.4053802097617
 20
246.7088711403223
 30
0.0
 10
268.3785946409926
 20
246.6942644719812
 30
0.0
 10
268.3524788549459
 20
246.6785097297596
 30
0.0
 10
268.3270804517921
 20
246.6616395112393
 30
0.0
 10
268.3024393014883
 20
246.6436815264175
 30
0.0
 10
268.2786113764245
 20
246.6246740751309
 30
0.0
 10
268.2556441726987
 20
246.6046507087688
 30
0.0
 10
268.2335785713552
 20
246.5836528391897
 30
0.0
 10
268.2124485263441
 20
246.5617137722294
 30
0.0
 10
268.1923027306789
 20
246.5388812995514
 30
0.0
 10
268.1731822068677
 20
246.5151969048951
 30
0.0
 10
268.1551199192541
 20
246.4907087830687
 30
0.0
 10
268.1381432679956
 20
246.4654557443648
 30
0.0
 10
268.1222914905568
 20
246.4394922047042
 30
0.0
 10
268.1075970716834
 20
246.4128664694113
 30
0.0
 10
268.0940885766356
 20
246.3856331919307
 30
0.0
 10
268.0817716827191
 20
246.3578330337577
 30
0.0
 10
268.0597186673756
 20
246.3012951951761
 30
0.0
 10
268.0348267121451
 20
246.2129133471619
 30
0.0
 10
268.0307402093756
 20
246.131939882198
 30
0.0
 10
268.028696957993
 20
246.091453149758
 30
0.0
 11
268.728696957993
 21
246.787292586514
 31
0.0
 11
268.6071644670579
 21
246.7767249486935
 31
0.0
 11
268.4892828576647
 21
246.7453283337292
 31
0.0
 11
268.4608242289111
 21
246.7343280464583
 31
0.0
 11
268.4328756135958
 21
246.7221026831837
 31
0.0
 11
268.4054820761513
 21
246.7086744947437
 31
0.0
 11
268.3786969579932
 21
246.6940677789437
 31
0.0
 11
268.3525970214229
 21
246.6783229717698
 31
0.0
 11
268.3272066449985
 21
246.6614582062574
 31
0.0
 11
268.302573483508
 21
246.6435055346574
 31
0.0
 11
268.2787456312124
 21
246.6244970835876
 31
0.0
 11
268.2557931807197
 21
246.6044871950962
 31
0.0
 11
268.233734491174
 21
246.5834959663571
 31
0.0
 11
268.2126113973237
 21
246.5615635462552
 31
0.0
 11
268.1924658478097
 21
246.538730118036
 31
0.0
 11
268.173357509778
 21
246.5150616257368
 31
0.0
 11
268.1553008613261
 21
246.4905813011113
 31
0.0
 11
268.1383300260259
 21
246.4653361431195
 31
0.0
 11
268.1224791753442
 21
246.4393728681358
 31
0.0
 11
268.1077937223524
 21
246.4127633598627
 31
0.0
 11
268.094286879816
 21
246.3855380976221
 31
0.0
 11
268.0819849326681
 21
246.3577501431955
 31
0.0
 11
268.0709121234436
 21
246.3294442536487
 31
0.0
 11
268.0393353233159
 21
246.2123057447064
 31
0.0
 11
268.028696957993
 21
246.091453149758
 31
0.0
  0
SPLINE
  5
22E
330
1F
100
AcDbEntity
  8
Sichtbare_Kanten_TC_020513_DIN_
  6
Continuous
 62
     7
100
AcDbSpline
210
0.0
220
0.0
230
1.0
 70
     8
 71
     3
 72
    31
 73
    27
 74
    25
 42
0.0000000001
 43
0.0000000001
 44
0.00000001
 40
0.0
 40
0.0
 40
0.0
 40
0.0
 40
0.1213199263209677
 40
0.2426398528933739
 40
0.2730344327912962
 40
0.3034237123953737
 40
0.333815318133999
 40
0.3642082196095672
 40
0.3946276396437329
 40
0.4250468318227318
 40
0.4554660502063539
 40
0.4858852236016061
 40
0.5163353239210704
 40
0.5467855479815317
 40
0.5772357937678833
 40
0.6076859271183409
 40
0.6381668680010049
 40
0.6686478631059688
 40
0.6991288658908502
 40
0.72961010014929
 40
0.7601190939249087
 40
0.7906268329184586
 40
0.8211323177571271
 40
0.8516429695130832
 40
0.9736340399419355
 40
1.095625110606911
 40
1.095625110606911
 40
1.095625110606911
 40
1.095625110606911
 10
280.028696957993
 20
246.091453149758
 30
0.0
 10
280.0266537066101
 20
246.131939882198
 30
0.0
 10
280.0225672038403
 20
246.2129133471619
 30
0.0
 10
279.9976752486103
 20
246.3012951951763
 30
0.0
 10
279.9756222332677
 20
246.3578330337582
 30
0.0
 10
279.9633053393511
 20
246.3856331919315
 30
0.0
 10
279.9497968443031
 20
246.4128664694118
 30
0.0
 10
279.9351024254292
 20
246.4394922047045
 30
0.0
 10
279.9192506479909
 20
246.4654557443655
 30
0.0
 10
279.9022739967326
 20
246.4907087830694
 30
0.0
 10
279.8842117091189
 20
246.5151969048957
 30
0.0
 10
279.8650911853072
 20
246.5388812995515
 30
0.0
 10
279.8449453896417
 20
246.5617137722293
 30
0.0
 10
279.8238153446308
 20
246.5836528391897
 30
0.0
 10
279.8017497432872
 20
246.604650708769
 30
0.0
 10
279.7787825395616
 20
246.6246740751308
 30
0.0
 10
279.7549546144975
 20
246.6436815264174
 30
0.0
 10
279.730313464194
 20
246.6616395112394
 30
0.0
 10
279.70491506104
 20
246.6785097297596
 30
0.0
 10
279.6787992749933
 20
246.6942644719812
 30
0.0
 10
279.6520137062242
 20
246.7088711403223
 30
0.0
 10
279.6246120880884
 20
246.7223006904197
 30
0.0
 10
279.59665132533
 20
246.7345404912003
 30
0.0
 10
279.5397436406895
 20
246.7564737672787
 30
0.0
 10
279.4508255760878
 20
246.7812065094951
 30
0.0
 10
279.3694064973842
 20
246.7852638941731
 30
0.0
 10
279.328696957993
 20
246.787292586514
 30
0.0
 11
280.028696957993
 21
246.091453149758
 31
0.0
 11
280.0180585926697
 21
246.2123057447064
 31
0.0
 11
279.9864817925429
 21
246.329444253649
 31
0.0
 11
279.9754089833187
 21
246.3577501431961
 31
0.0
 11
279.9631070361708
 21
246.3855380976229
 31
0.0
 11
279.949600193634
 21
246.4127633598633
 31
0.0
 11
279.9349147406421
 21
246.4393728681362
 31
0.0
 11
279.9190638899605
 21
246.4653361431201
 31
0.0
 11
279.9020930546605
 21
246.4905813011121
 31
0.0
 11
279.8840364062085
 21
246.5150616257372
 31
0.0
 11
279.8649280681765
 21
246.5387301180361
 31
0.0
 11
279.8447825186622
 21
246.5615635462552
 31
0.0
 11
279.823659424812
 21
246.5834959663571
 31
0.0
 11
279.8016007352663
 21
246.6044871950962
 31
0.0
 11
279.7786482847736
 21
246.6244970835876
 31
0.0
 11
279.754820432478
 21
246.6435055346574
 31
0.0
 11
279.7301872709876
 21
246.6614582062574
 31
0.0
 11
279.704796894563
 21
246.6783229717698
 31
0.0
 11
279.6786969579927
 21
246.6940677789437
 31
0.0
 11
279.6519118398347
 21
246.7086744947437
 31
0.0
 11
279.6245183023902
 21
246.7221026831837
 31
0.0
 11
279.5965696870749
 21
246.7343280464584
 31
0.0
 11
279.5681110583213
 21
246.7453283337291
 31
0.0
 11
279.450229448928
 21
246.7767249486935
 31
0.0
 11
279.328696957993
 21
246.787292586514
 31
0.0
  0
SPLINE
  5
22F
330
1F
100
AcDbEntity
  8
Sichtbare_Kanten_TC_020513_DIN_
  6
Continuous
 62
     7
100
AcDbSpline
210
0.0
220
0.0
230
1.0
 70
     8
 71
     3
 72
    31
 73
    27
 74
    25
 42
0.0000000001
 43
0.0000000001
 44
0.00000001
 40
0.0
 40
0.0
 40
0.0
 40
0.0
 40
0.1213199263209961
 40
0.2426398528935395
 40
0.2730344327914088
 40
0.3034237123954543
 40
0.333815318133978
 40
0.3642082196095188
 40
0.3946276396436548
 40
0.4250468318226619
 40
0.4554660502063634
 40
0.4858852236015221
 40
0.5163353239210341
 40
0.5467855479816136
 40
0.5772357937678653
 40
0.6076859271182987
 40
0.6381668680009449
 40
0.6686478631059716
 40
0.699128865890853
 40
0.7296101001492147
 40
0.7601190939248471
 40
0.7906268329183845
 40
0.8211323177571687
 40
0.8516429695131554
 40
0.9736340399419455
 40
1.095625110606916
 40
1.095625110606916
 40
1.095625110606916
 40
1.095625110606916
 10
280.028696957993
 20
246.037019712332
 30
0.0
 10
280.0266537066102
 20
246.0775064447721
 30
0.0
 10
280.0225672038403
 20
246.1584799097361
 30
0.0
 10
279.99767524861
 20
246.2468617577503
 30
0.0
 10
279.9756222332679
 20
246.3033995963325
 30
0.0
 10
279.9633053393511
 20
246.3311997545056
 30
0.0
 10
279.949796844303
 20
246.3584330319858
 30
0.0
 10
279.9351024254293
 20
246.3850587672786
 30
0.0
 10
279.9192506479909
 20
246.4110223069393
 30
0.0
 10
279.9022739967326
 20
246.4362753456434
 30
0.0
 10
279.8842117091188
 20
246.4607634674696
 30
0.0
 10
279.8650911853073
 20
246.4844478621255
 30
0.0
 10
279.844945389642
 20
246.5072803348037
 30
0.0
 10
279.8238153446307
 20
246.5292194017636
 30
0.0
 10
279.8017497432872
 20
246.5502172713429
 30
0.0
 10
279.7787825395616
 20
246.5702406377048
 30
0.0
 10
279.7549546144975
 20
246.5892480889914
 30
0.0
 10
279.730313464194
 20
246.6072060738134
 30
0.0
 10
279.70491506104
 20
246.6240762923336
 30
0.0
 10
279.6787992749934
 20
246.6398310345552
 30
0.0
 10
279.6520137062244
 20
246.6544377028963
 30
0.0
 10
279.6246120880885
 20
246.6678672529938
 30
0.0
 10
279.59665132533
 20
246.6801070537742
 30
0.0
 10
279.5397436406895
 20
246.7020403298529
 30
0.0
 10
279.4508255760878
 20
246.7267730720691
 30
0.0
 10
279.3694064973842
 20
246.7308304567471
 30
0.0
 10
279.328696957993
 20
246.732859149088
 30
0.0
 11
280.028696957993
 21
246.037019712332
 31
0.0
 11
280.0180585926697
 21
246.1578723072805
 31
0.0
 11
279.9864817925429
 21
246.2750108162232
 31
0.0
 11
279.9754089833187
 21
246.3033167057703
 31
0.0
 11
279.9631070361706
 21
246.331104660197
 31
0.0
 11
279.949600193634
 21
246.3583299224373
 31
0.0
 11
279.9349147406421
 21
246.3849394307102
 31
0.0
 11
279.9190638899606
 21
246.410902705694
 31
0.0
 11
279.9020930546605
 21
246.436147863686
 31
0.0
 11
279.8840364062085
 21
246.4606281883112
 31
0.0
 11
279.8649280681765
 21
246.4842966806101
 31
0.0
 11
279.8447825186623
 21
246.5071301088292
 31
0.0
 11
279.8236594248119
 21
246.5290625289311
 31
0.0
 11
279.8016007352663
 21
246.5500537576702
 31
0.0
 11
279.7786482847736
 21
246.5700636461616
 31
0.0
 11
279.754820432478
 21
246.5890720972313
 31
0.0
 11
279.7301872709876
 21
246.6070247688314
 31
0.0
 11
279.704796894563
 21
246.6238895343438
 31
0.0
 11
279.6786969579928
 21
246.6396343415177
 31
0.0
 11
279.6519118398347
 21
246.6542410573177
 31
0.0
 11
279.6245183023903
 21
246.6676692457576
 31
0.0
 11
279.5965696870749
 21
246.6798946090323
 31
0.0
 11
279.5681110583213
 21
246.6908948963032
 31
0.0
 11
279.450229448928
 21
246.7222915112676
 31
0.0
 11
279.328696957993
 21
246.732859149088
 31
0.0
  0
SPLINE
  5
230
330
1F
100
AcDbEntity
  8
Sichtbare_Kanten_TC_020513_DIN_
  6
Continuous
 62
     7
100
AcDbSpline
210
0.0
220
0.0
230
1.0
 70
     8
 71
     3
 72
    31
 73
    27
 74
    25
 42
0.0000000001
 43
0.0000000001
 44
0.00000001
 40
0.0
 40
0.0
 40
0.0
 40
0.0
 40
0.1219910706649733
 40
0.2439821410937708
 40
0.27449279284979
 40
0.3049982776883723
 40
0.3355060166820493
 40
0.3660150104577724
 40
0.3964962447160561
 40
0.4269772475009375
 40
0.4574582426059306
 40
0.4879391834885501
 40
0.5183893168390022
 40
0.5488395626253146
 40
0.5792897866858547
 40
0.6097398870053616
 40
0.6401590604005917
 40
0.6705782787842257
 40
0.7009974709632564
 40
0.7314168909973682
 40
0.7618097924729887
 40
0.7922013982114616
 40
0.8225906778155391
 40
0.8529852577134291
 40
0.9743051842860361
 40
1.095625110606987
 40
1.095625110606987
 40
1.095625110606987
 40
1.095625110606987
 10
268.728696957993
 20
246.732859149088
 30
0.0
 10
268.6879874186018
 20
246.7308304567471
 30
0.0
 10
268.6065683398982
 20
246.7267730720691
 30
0.0
 10
268.5176502752965
 20
246.7020403298527
 30
0.0
 10
268.460742590656
 20
246.6801070537742
 30
0.0
 10
268.4327818278975
 20
246.6678672529938
 30
0.0
 10
268.4053802097616
 20
246.6544377028963
 30
0.0
 10
268.3785946409927
 20
246.6398310345552
 30
0.0
 10
268.352478854946
 20
246.6240762923337
 30
0.0
 10
268.327080451792
 20
246.6072060738134
 30
0.0
 10
268.3024393014884
 20
246.5892480889916
 30
0.0
 10
268.2786113764244
 20
246.5702406377048
 30
0.0
 10
268.2556441726988
 20
246.5502172713429
 30
0.0
 10
268.2335785713553
 20
246.5292194017637
 30
0.0
 10
268.2124485263441
 20
246.5072803348035
 30
0.0
 10
268.1923027306787
 20
246.4844478621255
 30
0.0
 10
268.1731822068671
 20
246.4607634674697
 30
0.0
 10
268.1551199192534
 20
246.4362753456434
 30
0.0
 10
268.1381432679951
 20
246.4110223069395
 30
0.0
 10
268.1222914905568
 20
246.3850587672785
 30
0.0
 10
268.1075970716828
 20
246.3584330319858
 30
0.0
 10
268.0940885766348
 20
246.3311997545056
 30
0.0
 10
268.0817716827182
 20
246.3033995963324
 30
0.0
 10
268.0597186673757
 20
246.2468617577504
 30
0.0
 10
268.034826712145
 20
246.1584799097361
 30
0.0
 10
268.0307402093756
 20
246.077506444772
 30
0.0
 10
268.028696957993
 20
246.037019712332
 30
0.0
 11
268.728696957993
 21
246.732859149088
 31
0.0
 11
268.6071644670579
 21
246.7222915112675
 31
0.0
 11
268.4892828576647
 21
246.6908948963031
 31
0.0
 11
268.4608242289111
 21
246.6798946090323
 31
0.0
 11
268.4328756135958
 21
246.6676692457577
 31
0.0
 11
268.4054820761513
 21
246.6542410573177
 31
0.0
 11
268.3786969579932
 21
246.6396343415176
 31
0.0
 11
268.352597021423
 21
246.6238895343438
 31
0.0
 11
268.3272066449984
 21
246.6070247688314
 31
0.0
 11
268.302573483508
 21
246.5890720972314
 31
0.0
 11
268.2787456312124
 21
246.5700636461616
 31
0.0
 11
268.2557931807197
 21
246.5500537576702
 31
0.0
 11
268.2337344911741
 21
246.5290625289311
 31
0.0
 11
268.2126113973237
 21
246.5071301088292
 31
0.0
 11
268.1924658478094
 21
246.4842966806101
 31
0.0
 11
268.1733575097774
 21
246.4606281883112
 31
0.0
 11
268.1553008613255
 21
246.436147863686
 31
0.0
 11
268.1383300260254
 21
246.410902705694
 31
0.0
 11
268.1224791753439
 21
246.3849394307102
 31
0.0
 11
268.1077937223519
 21
246.3583299224373
 31
0.0
 11
268.0942868798153
 21
246.331104660197
 31
0.0
 11
268.0819849326674
 21
246.3033167057702
 31
0.0
 11
268.0709121234431
 21
246.2750108162231
 31
0.0
 11
268.0393353233158
 21
246.1578723072805
 31
0.0
 11
268.028696957993
 21
246.037019712332
 31
0.0
  0
SPLINE
  5
231
330
1F
100
AcDbEntity
  8
Sichtbare_Kanten_TC_020513_DIN_
  6
Continuous
 62
     7
100
AcDbSpline
210
0.0
220
0.0
230
1.0
 70
     8
 71
     3
 72
    31
 73
    27
 74
    25
 42
0.0000000001
 43
0.0000000001
 44
0.00000001
 40
0.0
 40
0.0
 40
0.0
 40
0.0
 40
0.1755718895063235
 40
0.3511437785892607
 40
0.3950458466911014
 40
0.4389405077196553
 40
0.4828383977648278
 40
0.5267380851030025
 40
0.5705879263441381
 40
0.6144374339834491
 40
0.6582869245372267
 40
0.7021363354725403
 40
0.7459301297188856
 40
0.7897240835670515
 40
0.8335179982032007
 40
0.8773117328326457
 40
0.9210496535664829
 40
0.9647876372514048
 40
1.008525576863082
 40
1.052263843546592
 40
1.095953984346631
 40
1.139642253927191
 40
1.183327164566275
 40
1.227019723030675
 40
1.401380196442268
 40
1.575740669396636
 40
1.575740669396636
 40
1.575740669396636
 40
1.575740669396636
 10
283.028696957993
 20
246.702072298501
 30
0.0
 10
283.0257819336838
 20
246.7606620375145
 30
0.0
 10
283.0199518850725
 20
246.8778415154003
 30
0.0
 10
282.9844101822526
 20
247.0058226473805
 30
0.0
 10
282.9528875309607
 20
247.0877356336221
 30
0.0
 10
282.9352982594103
 20
247.1279785278706
 30
0.0
 10
282.9159982330266
 20
247.1674186693641
 30
0.0
 10
282.8950068745448
 20
247.2059712428718
 30
0.0
 10
282.8723660439383
 20
247.2435591369642
 30
0.0
 10
282.8481226421928
 20
247.2801140208229
 30
0.0
 10
282.8223144312799
 20
247.3155812263235
 30
0.0
 10
282.7949984715603
 20
247.3498770986311
 30
0.0
 10
282.766223125473
 20
247.3829334574876
 30
0.0
 10
282.7360480213676
 20
247.4146916167199
 30
0.0
 10
282.7045182569798
 20
247.4451052976727
 30
0.0
 10
282.6717050879465
 20
247.4741016288546
 30
0.0
 10
282.6376682883128
 20
247.5016216846796
 30
0.0
 10
282.6024772994739
 20
247.5276181623086
 30
0.0
 10
282.5661847988223
 20
247.552053675334
 30
0.0
 10
282.5288717098244
 20
247.5748696546692
 30
0.0
 10
282.4906076361183
 20
247.5960194030175
 30
0.0
 10
282.4514713498683
 20
247.6154619251532
 30
0.0
 10
282.4115183472956
 20
247.6331903500158
 30
0.0
 10
282.3302729339923
 20
247.6649291305093
 30
0.0
 10
282.2032596745652
 20
247.7007582133421
 30
0.0
 10
282.0868845301328
 20
247.7066408204232
 30
0.0
 10
282.028696957993
 20
247.70958212396
 30
0.0
 11
283.028696957993
 21
246.702072298501
 31
0.0
 11
283.0135114228725
 21
246.8769862427934
 31
0.0
 11
282.968389578779
 21
247.0466609534068
 31
0.0
 11
282.9525821399545
 21
247.0876184491973
 31
0.0
 11
282.9350135402445
 21
247.1278438835771
 31
0.0
 11
282.9157154193656
 21
247.1672723920572
 31
0.0
 11
282.8947223617776
 21
247.2058272112306
 31
0.0
 11
282.872097449593
 21
247.2433894519187
 31
0.0
 11
282.8478618240228
 21
247.2799327655812
 31
0.0
 11
282.8220611948818
 21
247.3153884471816
 31
0.0
 11
282.7947414011125
 21
247.3496871309432
 31
0.0
 11
282.7659878433876
 21
247.3827193778037
 31
0.0
 11
282.7358222328206
 21
247.4144675483458
 31
0.0
 11
282.7043019789131
 21
247.4448711756421
 31
0.0
 11
282.6714845676798
 21
247.4738696016811
 31
0.0
 11
282.6374735288552
 21
247.501369691648
 31
0.0
 11
282.602293718057
 21
247.5273579991925
 31
0.0
 11
282.5660125240384
 21
247.5517850809269
 31
0.0
 11
282.5286969579935
 21
247.5746014019105
 31
0.0
 11
282.4904591149239
 21
247.5957365801806
 31
0.0
 11
282.4513343435394
 21
247.6151766718228
 31
0.0
 11
282.4113989024573
 21
247.6328835056199
 31
0.0
 11
282.3707171013186
 21
247.6488218468536
 31
0.0
 11
282.2023836888433
 21
247.6942689252274
 31
0.0
 11
282.028696957993
 21
247.70958212396
 31
0.0
  0
SPLINE
  5
232
330
1F
100
AcDbEntity
  8
Sichtbare_Kanten_TC_020513_DIN_
  6
Continuous
 62
     7
100
AcDbSpline
210
0.0
220
0.0
230
1.0
 70
     8
 71
     3
 72
    31
 73
    27
 74
    25
 42
0.0000000001
 43
0.0000000001
 44
0.00000001
 40
0.0
 40
0.0
 40
0.0
 40
0.0
 40
0.1743604729540414
 40
0.348720946365885
 40
0.3924135048302742
 40
0.4360984154693232
 40
0.4797866850496532
 40
0.5234768258492808
 40
0.5672150925326455
 40
0.6109530321444799
 40
0.6546910158297845
 40
0.6984289365638785
 40
0.7422226711934752
 40
0.7860165858296032
 40
0.8298105396776887
 40
0.8736043339240928
 40
0.9174537448593487
 40
0.9613032354130469
 40
1.005152743052523
 40
1.049002584293756
 40
1.092902271631858
 40
1.13680016167688
 40
1.180694822705313
 40
1.224596890807139
 40
1.400168779890278
 40
1.575740669396581
 40
1.575740669396581
 40
1.575740669396581
 40
1.575740669396581
 10
266.028696957993
 20
247.70958212396
 30
0.0
 10
265.9705093858533
 20
247.7066408204231
 30
0.0
 10
265.8541342414211
 20
247.7007582133417
 30
0.0
 10
265.7271209819937
 20
247.6649291305099
 30
0.0
 10
265.6458755686904
 20
247.633190350016
 30
0.0
 10
265.6059225661181
 20
247.6154619251534
 30
0.0
 10
265.566786279868
 20
247.5960194030175
 30
0.0
 10
265.5285222061624
 20
247.5748696546693
 30
0.0
 10
265.4912091171646
 20
247.552053675334
 30
0.0
 10
265.454916616513
 20
247.5276181623086
 30
0.0
 10
265.4197256276735
 20
247.5016216846795
 30
0.0
 10
265.3856888280397
 20
247.4741016288546
 30
0.0
 10
265.3528756590061
 20
247.4451052976728
 30
0.0
 10
265.3213458946184
 20
247.4146916167198
 30
0.0
 10
265.2911707905131
 20
247.3829334574876
 30
0.0
 10
265.2623954444256
 20
247.349877098631
 30
0.0
 10
265.2350794847061
 20
247.3155812263234
 30
0.0
 10
265.2092712737932
 20
247.2801140208229
 30
0.0
 10
265.1850278720476
 20
247.2435591369642
 30
0.0
 10
265.1623870414411
 20
247.2059712428716
 30
0.0
 10
265.1413956829592
 20
247.1674186693642
 30
0.0
 10
265.1220956565758
 20
247.1279785278706
 30
0.0
 10
265.1045063850256
 20
247.0877356336222
 30
0.0
 10
265.0729837337338
 20
247.0058226473804
 30
0.0
 10
265.0374420309131
 20
246.8778415154005
 30
0.0
 10
265.031611982302
 20
246.7606620375145
 30
0.0
 10
265.028696957993
 20
246.702072298501
 30
0.0
 11
266.028696957993
 21
247.70958212396
 31
0.0
 11
265.8550102271431
 21
247.6942689252272
 31
0.0
 11
265.6866768146674
 21
247.648821846854
 31
0.0
 11
265.6459950135288
 21
247.6328835056202
 31
0.0
 11
265.6060595724467
 21
247.6151766718229
 31
0.0
 11
265.5669348010625
 21
247.5957365801807
 31
0.0
 11
265.5286969579934
 21
247.5746014019106
 31
0.0
 11
265.4913813919487
 21
247.5517850809269
 31
0.0
 11
265.4551001979299
 21
247.5273579991925
 31
0.0
 11
265.4199203871312
 21
247.501369691648
 31
0.0
 11
265.3859093483063
 21
247.473869601681
 31
0.0
 11
265.3530919370728
 21
247.444871175642
 31
0.0
 11
265.3215716831654
 21
247.4144675483458
 31
0.0
 11
265.2914060725984
 21
247.3827193778037
 31
0.0
 11
265.2626525148735
 21
247.3496871309432
 31
0.0
 11
265.2353327211042
 21
247.3153884471816
 31
0.0
 11
265.2095320919633
 21
247.2799327655812
 31
0.0
 11
265.185296466393
 21
247.2433894519187
 31
0.0
 11
265.1626715542084
 21
247.2058272112304
 31
0.0
 11
265.1416784966203
 21
247.1672723920571
 31
0.0
 11
265.1223803757416
 21
247.1278438835771
 31
0.0
 11
265.1048117760318
 21
247.0876184491974
 31
0.0
 11
265.0890043372074
 21
247.0466609534069
 31
0.0
 11
265.0438824931133
 21
246.8769862427934
 31
0.0
 11
265.028696957993
 21
246.702072298501
 31
0.0
  0
LWPOLYLINE
  5
233
330
1F
100
AcDbEntity
  8
Mittelpunktmarkierung_TC_020513_DIN_
  6
CHAIN
 62
     7
100
AcDbPolyline
 90
        2
 70
     0
 43
0.25
 10
463.676764414531
 20
261.133167790864
 10
463.676764414531
 20
185.460075867801
  0
LWPOLYLINE
  5
234
330
1F
100
AcDbEntity
  8
Mittelpunktmarkierung_TC_020513_DIN_
  6
CHAIN
 62
     7
100
AcDbPolyline
 90
        2
 70
     0
 43
0.25
 10
478.676764414531
 20
200.460075867801
 10
448.676764414531
 20
200.460075867801
  0
LWPOLYLINE
  5
235
330
1F
100
AcDbEntity
  8
Mittelpunktmarkierung_TC_020513_DIN_
  6
CHAIN
 62
     7
100
AcDbPolyline
 90
        2
 70
     0
 43
0.25
 10
286.778696957993
 20
242.460075867801
 10
286.778696957993
 20
224.460075867801
  0
LWPOLYLINE
  5
236
330
1F
100
AcDbEntity
  8
Mittelpunktmarkierung_TC_020513_DIN_
  6
CHAIN
 62
     7
100
AcDbPolyline
 90
        2
 70
     0
 43
0.25
 10
295.778696957993
 20
233.460075867801
 10
277.778696957993
 20
233.460075867801
  0
LWPOLYLINE
  5
237
330
1F
100
AcDbEntity
  8
Mittelpunktmarkierung_TC_020513_DIN_
  6
CHAIN
 62
     7
100
AcDbPolyline
 90
        2
 70
     0
 43
0.25
 10
261.278696957993
 20
242.460075867801
 10
261.278696957993
 20
224.460075867801
  0
LWPOLYLINE
  5
238
330
1F
100
AcDbEntity
  8
Mittelpunktmarkierung_TC_020513_DIN_
  6
CHAIN
 62
     7
100
AcDbPolyline
 90
        2
 70
     0
 43
0.25
 10
270.278696957993
 20
233.460075867801
 10
252.278696957993
 20
233.460075867801
  0
LWPOLYLINE
  5
239
330
1F
100
AcDbEntity
  8
Mittellinie_TC_020513_DIN_
  6
CHAIN
 62
     7
100
AcDbPolyline
 90
        2
 70
     0
 43
0.25
 10
274.028696957993
 20
304.97846692387
 10
274.028696957993
 20
184.960075867801
  0
LWPOLYLINE
  5
23A
330
1F
100
AcDbEntity
  8
Mittellinie_TC_020513_DIN_
  6
CHAIN
 62
     7
100
AcDbPolyline
 90
        2
 70
     0
 43
0.25
 10
233.028696957993
 20
180.960075867801
 10
233.028696957993
 20
194.960075867801
  0
LWPOLYLINE
  5
23B
330
1F
100
AcDbEntity
  8
Mittellinie_TC_020513_DIN_
  6
CHAIN
 62
     7
100
AcDbPolyline
 90
        2
 70
     0
 43
0.25
 10
315.028696957993
 20
180.960075867801
 10
315.028696957993
 20
194.960075867801
  0
LWPOLYLINE
  5
23C
330
1F
100
AcDbEntity
  8
Mittellinie_TC_020513_DIN_
  6
CHAIN
 62
     7
100
AcDbPolyline
 90
        2
 70
     0
 43
0.25
 10
486.176764414533
 20
180.960075867801
 10
486.176764414533
 20
194.960075867801
  0
LWPOLYLINE
  5
23D
330
1F
100
AcDbEntity
  8
Mittellinie_TC_020513_DIN_
  6
CHAIN
 62
     7
100
AcDbPolyline
 90
        2
 70
     0
 43
0.25
 10
441.176764414533
 20
180.960075867801
 10
441.176764414533
 20
194.960075867801
  0
LWPOLYLINE
  5
23E
330
1F
100
AcDbEntity
  8
Mittellinie_TC_020513_DIN_
  6
CHAIN
 62
     7
100
AcDbPolyline
 90
        2
 70
     0
 43
0.25
 10
481.926764414541
 20
233.460075867801
 10
496.676764414541
 20
233.460075867801
  0
LWPOLYLINE
  5
23F
330
1F
100
AcDbEntity
  8
Mittellinie_TC_020513_DIN_
  6
CHAIN
 62
     7
100
AcDbPolyline
 90
        2
 70
     0
 43
0.25
 10
430.676764414541
 20
233.460075867801
 10
445.426764414541
 20
233.460075867801
  0
LWPOLYLINE
  5
240
330
1F
100
AcDbEntity
  8
Sichtbare_Kanten_TC_020513_DIN_
  6
Continuous
 62
     7
100
AcDbPolyline
 90
        2
 70
     0
 43
0.5
 10
424.426764414541
 20
246.460075867801
 10
424.426764414541
 20
216.960075867801
  0
LWPOLYLINE
  5
241
330
1F
100
AcDbEntity
  8
Sichtbare_Kanten_TC_020513_DIN_
  6
Continuous
 62
     7
100
AcDbPolyline
 90
        2
 70
     0
 43
0.5
 10
425.42676441454
 20
215.960075867801
 10
439.92676441454
 20
215.960075867801
  0
LWPOLYLINE
  5
242
330
1F
100
AcDbEntity
  8
Sichtbare_Kanten_TC_020513_DIN_
  6
Continuous
 62
     7
100
AcDbPolyline
 90
        2
 70
     0
 43
0.5
 10
439.92676441454
 20
216.460075867801
 10
439.92676441454
 20
215.960075867801
  0
LWPOLYLINE
  5
243
330
1F
100
AcDbEntity
  8
Sichtbare_Kanten_TC_020513_DIN_
  6
Continuous
 62
     7
100
AcDbPolyline
 90
        2
 70
     0
 43
0.5
 10
433.37676441454
 20
247.460075867801
 10
425.426764414541
 20
247.460075867801
  0
LWPOLYLINE
  5
244
330
1F
100
AcDbEntity
  8
Sichtbare_Kanten_TC_020513_DIN_
  6
Continuous
 62
     7
100
AcDbPolyline
 90
        2
 70
     0
 43
0.5
 10
433.37676441454
 20
247.460075867801
 10
433.472002509778
 20
246.960075867801
  0
LWPOLYLINE
  5
245
330
1F
100
AcDbEntity
  8
Sichtbare_Kanten_TC_020513_DIN_
  6
Continuous
 62
     7
100
AcDbPolyline
 90
        2
 70
     0
 43
0.5
 10
433.472002509778
 20
246.960075867801
 10
435.376764414544
 20
236.960075867801
  0
LWPOLYLINE
  5
246
330
1F
100
AcDbEntity
  8
Sichtbare_Kanten_TC_020513_DIN_
  6
Continuous
 62
     7
100
AcDbPolyline
 90
        2
 70
     0
 43
0.5
 10
439.92676441454
 20
217.960075867801
 10
439.92676441454
 20
216.460075867801
  0
LWPOLYLINE
  5
247
330
1F
100
AcDbEntity
  8
Sichtbare_Kanten_TC_020513_DIN_
  6
Continuous
 62
     7
100
AcDbPolyline
 90
        2
 70
     0
 43
0.5
 10
435.37676441454
 20
217.960075867801
 10
435.376764414544
 20
236.960075867801
  0
LWPOLYLINE
  5
248
330
1F
100
AcDbEntity
  8
Sichtbare_Kanten_TC_020513_DIN_
  6
Continuous
 62
     7
100
AcDbPolyline
 90
        2
 70
     0
 43
0.5
 10
435.376764414544
 20
236.960075867801
 10
441.426764414544
 20
236.960075867801
  0
LWPOLYLINE
  5
249
330
1F
100
AcDbEntity
  8
Sichtbare_Kanten_TC_020513_DIN_
  6
Continuous
 62
     7
100
AcDbPolyline
 90
        2
 70
     0
 43
0.5
 10
435.37676441454
 20
217.960075867801
 10
439.92676441454
 20
217.960075867801
  0
LWPOLYLINE
  5
24A
330
1F
100
AcDbEntity
  8
Sichtbare_Kanten_TC_020513_DIN_
  6
Continuous
 62
     7
100
AcDbPolyline
 90
        2
 70
     0
 43
0.5
 10
441.926764414541
 20
220.960075867801
 10
435.376764414542
 20
220.960075867801
  0
LWPOLYLINE
  5
24B
330
1F
100
AcDbEntity
  8
Sichtbare_Kanten_TC_020513_DIN_
  6
Continuous
 62
     7
100
AcDbPolyline
 90
        2
 70
     0
 43
0.5
 10
441.92676441454
 20
217.960075867801
 10
439.92676441454
 20
217.960075867801
  0
LWPOLYLINE
  5
24C
330
1F
100
AcDbEntity
  8
Sichtbare_Kanten_TC_020513_DIN_
  6
Continuous
 62
     7
100
AcDbPolyline
 90
        2
 70
     0
 43
0.5
 10
485.676764414536
 20
237.460075867801
 10
485.676764414536
 20
242.960075867801
  0
LWPOLYLINE
  5
24D
330
1F
100
AcDbEntity
  8
Sichtbare_Kanten_TC_020513_DIN_
  6
Continuous
 62
     7
100
AcDbPolyline
 90
        2
 70
     0
 43
0.5
 10
479.676764414534
 20
237.460075867801
 10
485.676764414536
 20
237.460075867801
  0
LWPOLYLINE
  5
24E
330
1F
100
AcDbEntity
  8
Sichtbare_Kanten_TC_020513_DIN_
  6
Continuous
 62
     7
100
AcDbPolyline
 90
        2
 70
     0
 43
0.5
 10
479.676764414534
 20
237.460075867801
 10
447.676764414534
 20
237.460075867801
  0
LWPOLYLINE
  5
24F
330
1F
100
AcDbEntity
  8
Sichtbare_Kanten_TC_020513_DIN_
  6
Continuous
 62
     7
100
AcDbPolyline
 90
        2
 70
     0
 43
0.5
 10
441.676764414536
 20
237.460075867801
 10
447.676764414534
 20
237.460075867801
  0
LWPOLYLINE
  5
250
330
1F
100
AcDbEntity
  8
Sichtbare_Kanten_TC_020513_DIN_
  6
Continuous
 62
     7
100
AcDbPolyline
 90
        2
 70
     0
 43
0.5
 10
441.676764414536
 20
237.460075867801
 10
441.676764414536
 20
242.960075867801
  0
LWPOLYLINE
  5
251
330
1F
100
AcDbEntity
  8
Sichtbare_Kanten_TC_020513_DIN_
  6
Continuous
 62
     7
100
AcDbPolyline
 90
        2
 70
     0
 43
0.5
 10
479.676764414534
 20
242.960075867801
 10
485.676764414536
 20
242.960075867801
  0
LWPOLYLINE
  5
252
330
1F
100
AcDbEntity
  8
Sichtbare_Kanten_TC_020513_DIN_
  6
Continuous
 62
     7
100
AcDbPolyline
 90
        2
 70
     0
 43
0.5
 10
479.676764414534
 20
242.960075867801
 10
447.676764414534
 20
242.960075867801
  0
LWPOLYLINE
  5
253
330
1F
100
AcDbEntity
  8
Sichtbare_Kanten_TC_020513_DIN_
  6
Continuous
 62
     7
100
AcDbPolyline
 90
        2
 70
     0
 43
0.5
 10
441.676764414536
 20
242.960075867801
 10
447.676764414534
 20
242.960075867801
  0
LWPOLYLINE
  5
254
330
1F
100
AcDbEntity
  8
Sichtbare_Kanten_TC_020513_DIN_
  6
Continuous
 62
     7
100
AcDbPolyline
 90
        2
 70
     0
 43
0.5
 10
428.426764414536
 20
255.960075867801
 10
428.426764414534
 20
261.960075867801
  0
LWPOLYLINE
  5
255
330
1F
100
AcDbEntity
  8
Sichtbare_Kanten_TC_020513_DIN_
  6
Continuous
 62
     7
100
AcDbPolyline
 90
        2
 70
     0
 43
0.5
 10
428.426764414534
 20
293.460075867801
 10
428.426764414534
 20
261.960075867801
  0
LWPOLYLINE
  5
256
330
1F
100
AcDbEntity
  8
Sichtbare_Kanten_TC_020513_DIN_
  6
Continuous
 62
     7
100
AcDbPolyline
 90
        2
 70
     0
 43
0.5
 10
428.426764414534
 20
293.460075867801
 10
428.426764414542
 20
299.460075867801
  0
LWPOLYLINE
  5
257
330
1F
100
AcDbEntity
  8
Sichtbare_Kanten_TC_020513_DIN_
  6
Continuous
 62
     7
100
AcDbPolyline
 90
        2
 70
     0
 43
0.5
 10
428.426764414536
 20
255.960075867801
 10
417.926764414536
 20
255.960075867801
  0
LWPOLYLINE
  5
258
330
1F
100
AcDbEntity
  8
Sichtbare_Kanten_TC_020513_DIN_
  6
Continuous
 62
     7
100
AcDbPolyline
 90
        2
 70
     0
 43
0.5
 10
428.426764414542
 20
299.460075867801
 10
417.926764414536
 20
299.460075867801
  0
LWPOLYLINE
  5
259
330
1F
100
AcDbEntity
  8
Sichtbare_Kanten_TC_020513_DIN_
  6
Continuous
 62
     7
100
AcDbPolyline
 90
        2
 70
     0
 43
0.5
 10
426.426764414542
 20
302.460075867801
 10
426.426764414542
 20
299.460075867801
  0
LWPOLYLINE
  5
25A
330
1F
100
AcDbEntity
  8
Sichtbare_Kanten_TC_020513_DIN_
  6
Continuous
 62
     7
100
AcDbPolyline
 90
        2
 70
     0
 43
0.5
 10
426.426764414542
 20
302.460075867801
 10
428.426764414542
 20
302.460075867801
  0
LWPOLYLINE
  5
25B
330
1F
100
AcDbEntity
  8
Sichtbare_Kanten_TC_020513_DIN_
  6
Continuous
 62
     7
100
AcDbPolyline
 90
        2
 70
     0
 43
0.5
 10
428.426764414542
 20
299.460075867801
 10
428.426764414542
 20
302.460075867801
  0
LWPOLYLINE
  5
25C
330
1F
100
AcDbEntity
  8
Sichtbare_Kanten_TC_020513_DIN_
  6
Continuous
 62
     7
100
AcDbPolyline
 90
        2
 70
     0
 43
0.5
 10
415.926764414535
 20
293.460075867801
 10
415.926764414535
 20
261.960075867801
  0
LWPOLYLINE
  5
25D
330
1F
100
AcDbEntity
  8
Sichtbare_Kanten_TC_020513_DIN_
  6
Continuous
 62
     7
100
AcDbPolyline
 90
        2
 70
     0
 43
0.5
 10
415.926764414535
 20
293.460075867801
 10
415.926764414536
 20
297.460075867801
  0
LWPOLYLINE
  5
25E
330
1F
100
AcDbEntity
  8
Sichtbare_Kanten_TC_020513_DIN_
  6
Continuous
 62
     7
100
AcDbPolyline
 90
        2
 70
     0
 43
0.5
 10
415.926764414536
 20
257.960075867801
 10
415.926764414535
 20
261.960075867801
  0
LWPOLYLINE
  5
25F
330
1F
100
AcDbEntity
  8
Sichtbare_Kanten_TC_020513_DIN_
  6
Continuous
 62
     7
100
AcDbPolyline
 90
        2
 70
     0
 43
0.5
 10
422.400840360271
 20
238.460075867801
 10
424.426764414542
 20
238.460075867801
  0
LWPOLYLINE
  5
260
330
1F
100
AcDbEntity
  8
Sichtbare_Kanten_TC_020513_DIN_
  6
Continuous
 62
     7
100
AcDbPolyline
 90
        2
 70
     0
 43
0.5
 10
429.95882980065
 20
247.460075867801
 10
427.926764414542
 20
247.70958212396
  0
LWPOLYLINE
  5
261
330
1F
100
AcDbEntity
  8
Sichtbare_Kanten_TC_020513_DIN_
  6
Continuous
 62
     7
100
AcDbPolyline
 90
        2
 70
     0
 43
0.5
 10
420.951951620837
 20
239.571847300147
 10
416.404612563081
 20
256.542747702936
  0
LWPOLYLINE
  5
262
330
1F
100
AcDbEntity
  8
Sichtbare_Kanten_TC_020513_DIN_
  6
Continuous
 62
     7
100
AcDbPolyline
 90
        2
 70
     0
 43
0.5
 10
427.926764414542
 20
254.960075867801
 10
427.926764414542
 20
247.460075867801
  0
LWPOLYLINE
  5
263
330
1F
100
AcDbEntity
  8
Sichtbare_Kanten_TC_020513_DIN_
  6
Continuous
 62
     7
100
AcDbPolyline
 90
        2
 70
     0
 43
0.5
 10
427.926764414542
 20
254.960075867801
 10
427.926764414542
 20
255.960075867801
  0
LWPOLYLINE
  5
264
330
1F
100
AcDbEntity
  8
Sichtbare_Kanten_TC_020513_DIN_
  6
Continuous
 62
     7
100
AcDbPolyline
 90
        2
 70
     0
 43
0.5
 10
427.426764414533
 20
273.968418481027
 10
427.426764414533
 20
281.451733254574
  0
LWPOLYLINE
  5
265
330
1F
100
AcDbEntity
  8
Sichtbare_Kanten_TC_020513_DIN_
  6
Continuous
 62
     7
100
AcDbPolyline
 90
        2
 70
     0
 43
0.5
 10
435.426764414541
 20
231.210075867801
 10
435.676764414541
 20
230.960075867801
  0
LWPOLYLINE
  5
266
330
1F
100
AcDbEntity
  8
Sichtbare_Kanten_TC_020513_DIN_
  6
Continuous
 62
     7
100
AcDbPolyline
 90
        2
 70
     0
 43
0.5
 10
435.426764414541
 20
235.710075867801
 10
435.676764414541
 20
235.960075867801
  0
LWPOLYLINE
  5
267
330
1F
100
AcDbEntity
  8
Sichtbare_Kanten_TC_020513_DIN_
  6
Continuous
 62
     7
100
AcDbPolyline
 90
        2
 70
     0
 43
0.5
 10
435.676764414541
 20
230.960075867801
 10
440.426764414541
 20
230.960075867801
  0
LWPOLYLINE
  5
268
330
1F
100
AcDbEntity
  8
Sichtbare_Kanten_TC_020513_DIN_
  6
Continuous
 62
     7
100
AcDbPolyline
 90
        2
 70
     0
 43
0.5
 10
435.676764414541
 20
235.960075867801
 10
440.426764414541
 20
235.960075867801
  0
LWPOLYLINE
  5
269
330
1F
100
AcDbEntity
  8
Sichtbare_Kanten_TC_020513_DIN_
  6
Continuous
 62
     7
100
AcDbPolyline
 90
        2
 70
     0
 43
0.5
 10
440.426764414541
 20
230.960075867801
 10
441.926764414541
 20
229.460075867801
  0
LWPOLYLINE
  5
26A
330
1F
100
AcDbEntity
  8
Sichtbare_Kanten_TC_020513_DIN_
  6
Continuous
 62
     7
100
AcDbPolyline
 90
        2
 70
     0
 43
0.5
 10
440.426764414541
 20
235.960075867801
 10
441.926764414536
 20
237.460075867801
  0
LWPOLYLINE
  5
26B
330
1F
100
AcDbEntity
  8
Sichtbare_Kanten_TC_020513_DIN_
  6
Continuous
 62
     7
100
AcDbPolyline
 90
        2
 70
     0
 43
0.5
 10
491.926764414541
 20
235.710075867801
 10
491.676764414541
 20
235.960075867801
  0
LWPOLYLINE
  5
26C
330
1F
100
AcDbEntity
  8
Sichtbare_Kanten_TC_020513_DIN_
  6
Continuous
 62
     7
100
AcDbPolyline
 90
        2
 70
     0
 43
0.5
 10
491.926764414541
 20
231.210075867801
 10
491.676764414541
 20
230.960075867801
  0
LWPOLYLINE
  5
26D
330
1F
100
AcDbEntity
  8
Sichtbare_Kanten_TC_020513_DIN_
  6
Continuous
 62
     7
100
AcDbPolyline
 90
        2
 70
     0
 43
0.5
 10
486.926764414541
 20
230.960075867801
 10
491.676764414541
 20
230.960075867801
  0
LWPOLYLINE
  5
26E
330
1F
100
AcDbEntity
  8
Sichtbare_Kanten_TC_020513_DIN_
  6
Continuous
 62
     7
100
AcDbPolyline
 90
        2
 70
     0
 43
0.5
 10
486.926764414541
 20
235.960075867801
 10
491.676764414541
 20
235.960075867801
  0
LWPOLYLINE
  5
26F
330
1F
100
AcDbEntity
  8
Sichtbare_Kanten_TC_020513_DIN_
  6
Continuous
 62
     7
100
AcDbPolyline
 90
        2
 70
     0
 43
0.5
 10
486.926764414541
 20
235.960075867801
 10
485.426764414536
 20
237.460075867801
  0
LWPOLYLINE
  5
270
330
1F
100
AcDbEntity
  8
Sichtbare_Kanten_TC_020513_DIN_
  6
Continuous
 62
     7
100
AcDbPolyline
 90
        2
 70
     0
 43
0.5
 10
486.926764414541
 20
230.960075867801
 10
485.426764414541
 20
229.460075867801
  0
LWPOLYLINE
  5
271
330
1F
100
AcDbEntity
  8
Sichtbare_Kanten_TC_020513_DIN_
  6
Continuous
 62
     7
100
AcDbPolyline
 90
        2
 70
     0
 43
0.5
 10
435.426764414541
 20
231.210075867801
 10
435.426764414541
 20
235.710075867801
  0
LWPOLYLINE
  5
272
330
1F
100
AcDbEntity
  8
Sichtbare_Kanten_TC_020513_DIN_
  6
Continuous
 62
     7
100
AcDbPolyline
 90
        2
 70
     0
 43
0.5
 10
435.676764414541
 20
230.960075867801
 10
435.676764414541
 20
235.960075867801
  0
LWPOLYLINE
  5
273
330
1F
100
AcDbEntity
  8
Sichtbare_Kanten_TC_020513_DIN_
  6
Continuous
 62
     7
100
AcDbPolyline
 90
        2
 70
     0
 43
0.5
 10
440.426764414541
 20
230.960075867801
 10
440.426764414541
 20
235.960075867801
  0
LWPOLYLINE
  5
274
330
1F
100
AcDbEntity
  8
Sichtbare_Kanten_TC_020513_DIN_
  6
Continuous
 62
     7
100
AcDbPolyline
 90
        2
 70
     0
 43
0.5
 10
491.926764414541
 20
231.210075867801
 10
491.926764414541
 20
235.710075867801
  0
LWPOLYLINE
  5
275
330
1F
100
AcDbEntity
  8
Sichtbare_Kanten_TC_020513_DIN_
  6
Continuous
 62
     7
100
AcDbPolyline
 90
        2
 70
     0
 43
0.5
 10
491.676764414541
 20
230.960075867801
 10
491.676764414541
 20
235.960075867801
  0
LWPOLYLINE
  5
276
330
1F
100
AcDbEntity
  8
Sichtbare_Kanten_TC_020513_DIN_
  6
Continuous
 62
     7
100
AcDbPolyline
 90
        2
 70
     0
 43
0.5
 10
486.926764414541
 20
230.960075867801
 10
486.926764414541
 20
235.960075867801
  0
LWPOLYLINE
  5
277
330
1F
100
AcDbEntity
  8
Sichtbare_Kanten_TC_020513_DIN_
  6
Continuous
 62
     7
100
AcDbPolyline
 90
        2
 70
     0
 43
0.5
 10
436.176764414531
 20
189.960075867801
 10
451.926764414531
 20
189.960075867801
  0
LWPOLYLINE
  5
278
330
1F
100
AcDbEntity
  8
Sichtbare_Kanten_TC_020513_DIN_
  6
Continuous
 62
     7
100
AcDbPolyline
 90
        2
 70
     0
 43
0.5
 10
451.926764414531
 20
200.460075867801
 10
451.926764414531
 20
189.960075867801
  0
LWPOLYLINE
  5
279
330
1F
100
AcDbEntity
  8
Sichtbare_Kanten_TC_020513_DIN_
  6
Continuous
 62
     7
100
AcDbPolyline
 90
        2
 70
     0
 43
0.5
 10
475.426764414531
 20
189.960075867801
 10
475.426764414531
 20
200.460075867801
  0
LWPOLYLINE
  5
27A
330
1F
100
AcDbEntity
  8
Sichtbare_Kanten_TC_020513_DIN_
  6
Continuous
 62
     7
100
AcDbPolyline
 90
        2
 70
     0
 43
0.5
 10
491.176764414531
 20
189.960075867801
 10
475.426764414531
 20
189.960075867801
  0
LWPOLYLINE
  5
27B
330
1F
100
AcDbEntity
  8
Sichtbare_Kanten_TC_020513_DIN_
  6
Continuous
 62
     7
100
AcDbPolyline
 90
        2
 70
     0
 43
0.5
 10
436.176764414531
 20
185.960075867801
 10
491.176764414531
 20
185.960075867801
  0
LWPOLYLINE
  5
27C
330
1F
100
AcDbEntity
  8
Sichtbare_Kanten_TC_020513_DIN_
  6
Continuous
 62
     7
100
AcDbPolyline
 90
        2
 70
     0
 43
0.5
 10
435.176764414531
 20
189.960075867801
 10
435.176764414531
 20
185.960075867801
  0
LWPOLYLINE
  5
27D
330
1F
100
AcDbEntity
  8
Sichtbare_Kanten_TC_020513_DIN_
  6
Continuous
 62
     7
100
AcDbPolyline
 90
        2
 70
     0
 43
0.5
 10
435.176764414531
 20
189.960075867801
 10
436.176764414531
 20
189.960075867801
  0
LWPOLYLINE
  5
27E
330
1F
100
AcDbEntity
  8
Sichtbare_Kanten_TC_020513_DIN_
  6
Continuous
 62
     7
100
AcDbPolyline
 90
        2
 70
     0
 43
0.5
 10
436.176764414531
 20
185.960075867801
 10
435.176764414531
 20
185.960075867801
  0
LWPOLYLINE
  5
27F
330
1F
100
AcDbEntity
  8
Sichtbare_Kanten_TC_020513_DIN_
  6
Continuous
 62
     7
100
AcDbPolyline
 90
        2
 70
     0
 43
0.5
 10
492.176764414531
 20
185.960075867801
 10
492.176764414531
 20
189.960075867801
  0
LWPOLYLINE
  5
280
330
1F
100
AcDbEntity
  8
Sichtbare_Kanten_TC_020513_DIN_
  6
Continuous
 62
     7
100
AcDbPolyline
 90
        2
 70
     0
 43
0.5
 10
492.176764414531
 20
185.960075867801
 10
491.176764414531
 20
185.960075867801
  0
LWPOLYLINE
  5
281
330
1F
100
AcDbEntity
  8
Sichtbare_Kanten_TC_020513_DIN_
  6
Continuous
 62
     7
100
AcDbPolyline
 90
        2
 70
     0
 43
0.5
 10
491.176764414531
 20
189.960075867801
 10
492.176764414531
 20
189.960075867801
  0
LWPOLYLINE
  5
282
330
1F
100
AcDbEntity
  8
Sichtbare_Kanten_TC_020513_DIN_
  6
Continuous
 62
     7
100
AcDbPolyline
 90
        2
 70
     0
 43
0.5
 10
485.426764414536
 20
237.460075867801
 10
485.426764414536
 20
189.960075867801
  0
LWPOLYLINE
  5
283
330
1F
100
AcDbEntity
  8
Sichtbare_Kanten_TC_020513_DIN_
  6
Continuous
 62
     7
100
AcDbPolyline
 90
        2
 70
     0
 43
0.5
 10
441.926764414536
 20
237.460075867801
 10
441.926764414536
 20
189.960075867801
  0
LWPOLYLINE
  5
284
330
1F
100
AcDbEntity
  8
Sichtbare_Kanten_TC_020513_DIN_
  6
Continuous
 62
     7
100
AcDbPolyline
 90
        2
 70
     0
 43
0.5
 10
268.728696957993
 20
246.787292586514
 10
279.328696957993
 20
246.787292586514
  0
LWPOLYLINE
  5
285
330
1F
100
AcDbEntity
  8
Sichtbare_Kanten_TC_020513_DIN_
  6
Continuous
 62
     7
100
AcDbPolyline
 90
        2
 70
     0
 43
0.5
 10
268.728696957993
 20
246.732859149088
 10
279.328696957993
 20
246.732859149088
  0
LWPOLYLINE
  5
286
330
1F
100
AcDbEntity
  8
Sichtbare_Kanten_TC_020513_DIN_
  6
Continuous
 62
     7
100
AcDbPolyline
 90
        2
 70
     0
 43
0.5
 10
280.028696957993
 20
242.960075867801
 10
280.028696957993
 20
246.037019712332
  0
LWPOLYLINE
  5
287
330
1F
100
AcDbEntity
  8
Sichtbare_Kanten_TC_020513_DIN_
  6
Continuous
 62
     7
100
AcDbPolyline
 90
        2
 70
     0
 43
0.5
 10
268.028696957993
 20
246.037019712332
 10
268.028696957993
 20
242.960075867801
  0
LWPOLYLINE
  5
288
330
1F
100
AcDbEntity
  8
Sichtbare_Kanten_TC_020513_DIN_
  6
Continuous
 62
     7
100
AcDbPolyline
 90
        2
 70
     0
 43
0.5
 10
280.028696957993
 20
246.037019712332
 10
280.028696957993
 20
246.091453149758
  0
LWPOLYLINE
  5
289
330
1F
100
AcDbEntity
  8
Sichtbare_Kanten_TC_020513_DIN_
  6
Continuous
 62
     7
100
AcDbPolyline
 90
        2
 70
     0
 43
0.5
 10
268.028696957993
 20
246.091453149758
 10
268.028696957993
 20
246.037019712332
  0
LWPOLYLINE
  5
28A
330
1F
100
AcDbEntity
  8
Sichtbare_Kanten_TC_020513_DIN_
  6
Continuous
 62
     7
100
AcDbPolyline
 90
        2
 70
     0
 43
0.5
 10
283.178696957993
 20
247.460075867801
 10
283.178696957993
 20
246.960075867801
  0
LWPOLYLINE
  5
28B
330
1F
100
AcDbEntity
  8
Sichtbare_Kanten_TC_020513_DIN_
  6
Continuous
 62
     7
100
AcDbPolyline
 90
        2
 70
     0
 43
0.5
 10
264.878696957993
 20
246.960075867801
 10
264.878696957993
 20
247.460075867801
  0
LWPOLYLINE
  5
28C
330
1F
100
AcDbEntity
  8
Sichtbare_Kanten_TC_020513_DIN_
  6
Continuous
 62
     7
100
AcDbPolyline
 90
        2
 70
     0
 43
0.5
 10
260.778696957993
 20
244.460075867801
 10
264.878696957993
 20
244.460075867801
  0
LWPOLYLINE
  5
28D
330
1F
100
AcDbEntity
  8
Sichtbare_Kanten_TC_020513_DIN_
  6
Continuous
 62
     7
100
AcDbPolyline
 90
        2
 70
     0
 43
0.5
 10
283.178696957993
 20
244.460075867801
 10
287.278696957993
 20
244.460075867801
  0
LWPOLYLINE
  5
28E
330
1F
100
AcDbEntity
  8
Sichtbare_Kanten_TC_020513_DIN_
  6
Continuous
 62
     7
100
AcDbPolyline
 90
        2
 70
     0
 43
0.5
 10
287.278696957993
 20
246.960075867801
 10
287.278696957993
 20
242.960075867801
  0
LWPOLYLINE
  5
28F
330
1F
100
AcDbEntity
  8
Sichtbare_Kanten_TC_020513_DIN_
  6
Continuous
 62
     7
100
AcDbPolyline
 90
        2
 70
     0
 43
0.5
 10
283.178696957993
 20
246.960075867801
 10
287.278696957993
 20
246.960075867801
  0
LWPOLYLINE
  5
290
330
1F
100
AcDbEntity
  8
Sichtbare_Kanten_TC_020513_DIN_
  6
Continuous
 62
     7
100
AcDbPolyline
 90
        2
 70
     0
 43
0.5
 10
264.878696957993
 20
244.460075867801
 10
264.878696957993
 20
245.053595077922
  0
LWPOLYLINE
  5
291
330
1F
100
AcDbEntity
  8
Sichtbare_Kanten_TC_020513_DIN_
  6
Continuous
 62
     7
100
AcDbPolyline
 90
        2
 70
     0
 43
0.5
 10
264.878696957993
 20
246.960075867801
 10
264.878696957993
 20
245.053595077922
  0
LWPOLYLINE
  5
292
330
1F
100
AcDbEntity
  8
Sichtbare_Kanten_TC_020513_DIN_
  6
Continuous
 62
     7
100
AcDbPolyline
 90
        2
 70
     0
 43
0.5
 10
283.178696957993
 20
245.053595077922
 10
283.178696957993
 20
246.960075867801
  0
LWPOLYLINE
  5
293
330
1F
100
AcDbEntity
  8
Sichtbare_Kanten_TC_020513_DIN_
  6
Continuous
 62
     7
100
AcDbPolyline
 90
        2
 70
     0
 43
0.5
 10
283.178696957993
 20
245.053595077922
 10
283.178696957993
 20
244.460075867801
  0
LWPOLYLINE
  5
294
330
1F
100
AcDbEntity
  8
Sichtbare_Kanten_TC_020513_DIN_
  6
Continuous
 62
     7
100
AcDbPolyline
 90
        2
 70
     0
 43
0.5
 10
260.778696957993
 20
242.960075867801
 10
260.778696957993
 20
246.960075867801
  0
LWPOLYLINE
  5
295
330
1F
100
AcDbEntity
  8
Sichtbare_Kanten_TC_020513_DIN_
  6
Continuous
 62
     7
100
AcDbPolyline
 90
        2
 70
     0
 43
0.5
 10
260.778696957993
 20
246.960075867801
 10
264.878696957993
 20
246.960075867801
  0
LWPOLYLINE
  5
296
330
1F
100
AcDbEntity
  8
Sichtbare_Kanten_TC_020513_DIN_
  6
Continuous
 62
     7
100
AcDbPolyline
 90
        2
 70
     0
 43
0.5
 10
259.528696957993
 20
247.460075867801
 10
264.878696957993
 20
247.460075867801
  0
LWPOLYLINE
  5
297
330
1F
100
AcDbEntity
  8
Sichtbare_Kanten_TC_020513_DIN_
  6
Continuous
 62
     7
100
AcDbPolyline
 90
        2
 70
     0
 43
0.5
 10
283.178696957993
 20
247.460075867801
 10
288.528696957993
 20
247.460075867801
  0
LWPOLYLINE
  5
298
330
1F
100
AcDbEntity
  8
Sichtbare_Kanten_TC_020513_DIN_
  6
Continuous
 62
     7
100
AcDbPolyline
 90
        2
 70
     0
 43
0.5
 10
259.028696957993
 20
246.960075867801
 10
259.028696957993
 20
242.960075867801
  0
LWPOLYLINE
  5
299
330
1F
100
AcDbEntity
  8
Sichtbare_Kanten_TC_020513_DIN_
  6
Continuous
 62
     7
100
AcDbPolyline
 90
        2
 70
     0
 43
0.5
 10
289.028696957993
 20
242.960075867801
 10
289.028696957993
 20
246.960075867801
  0
LWPOLYLINE
  5
29A
330
1F
100
AcDbEntity
  8
Sichtbare_Kanten_TC_020513_DIN_
  6
Continuous
 62
     7
100
AcDbPolyline
 90
        2
 70
     0
 43
0.5
 10
309.528696957993
 20
237.460075867801
 10
309.528696957993
 20
242.960075867801
  0
LWPOLYLINE
  5
29B
330
1F
100
AcDbEntity
  8
Sichtbare_Kanten_TC_020513_DIN_
  6
Continuous
 62
     7
100
AcDbPolyline
 90
        2
 70
     0
 43
0.5
 10
303.528696957993
 20
237.460075867801
 10
309.528696957993
 20
237.460075867801
  0
LWPOLYLINE
  5
29C
330
1F
100
AcDbEntity
  8
Sichtbare_Kanten_TC_020513_DIN_
  6
Continuous
 62
     7
100
AcDbPolyline
 90
        2
 70
     0
 43
0.5
 10
303.528696957993
 20
237.460075867801
 10
244.528696957993
 20
237.460075867801
  0
LWPOLYLINE
  5
29D
330
1F
100
AcDbEntity
  8
Sichtbare_Kanten_TC_020513_DIN_
  6
Continuous
 62
     7
100
AcDbPolyline
 90
        2
 70
     0
 43
0.5
 10
238.528696957993
 20
237.460075867801
 10
244.528696957993
 20
237.460075867801
  0
LWPOLYLINE
  5
29E
330
1F
100
AcDbEntity
  8
Sichtbare_Kanten_TC_020513_DIN_
  6
Continuous
 62
     7
100
AcDbPolyline
 90
        2
 70
     0
 43
0.5
 10
238.528696957993
 20
237.460075867801
 10
238.528696957993
 20
242.960075867801
  0
LWPOLYLINE
  5
29F
330
1F
100
AcDbEntity
  8
Sichtbare_Kanten_TC_020513_DIN_
  6
Continuous
 62
     7
100
AcDbPolyline
 90
        2
 70
     0
 43
0.5
 10
303.528696957993
 20
242.960075867801
 10
309.528696957993
 20
242.960075867801
  0
LWPOLYLINE
  5
2A0
330
1F
100
AcDbEntity
  8
Sichtbare_Kanten_TC_020513_DIN_
  6
Continuous
 62
     7
100
AcDbPolyline
 90
        2
 70
     0
 43
0.5
 10
303.528696957993
 20
242.960075867801
 10
244.528696957993
 20
242.960075867801
  0
LWPOLYLINE
  5
2A1
330
1F
100
AcDbEntity
  8
Sichtbare_Kanten_TC_020513_DIN_
  6
Continuous
 62
     7
100
AcDbPolyline
 90
        2
 70
     0
 43
0.5
 10
238.528696957993
 20
242.960075867801
 10
244.528696957993
 20
242.960075867801
  0
LWPOLYLINE
  5
2A2
330
1F
100
AcDbEntity
  8
Sichtbare_Kanten_TC_020513_DIN_
  6
Continuous
 62
     7
100
AcDbPolyline
 90
        2
 70
     0
 43
0.5
 10
264.878696957993
 20
244.460075867801
 10
265.028696957993
 20
244.460075867801
  0
LWPOLYLINE
  5
2A3
330
1F
100
AcDbEntity
  8
Sichtbare_Kanten_TC_020513_DIN_
  6
Continuous
 62
     7
100
AcDbPolyline
 90
        2
 70
     0
 43
0.5
 10
283.028696957993
 20
244.460075867801
 10
283.178696957993
 20
244.460075867801
  0
LWPOLYLINE
  5
2A4
330
1F
100
AcDbEntity
  8
Sichtbare_Kanten_TC_020513_DIN_
  6
Continuous
 62
     7
100
AcDbPolyline
 90
        2
 70
     0
 43
0.5
 10
261.028696957993
 20
242.960075867801
 10
261.028696957993
 20
244.460075867801
  0
LWPOLYLINE
  5
2A5
330
1F
100
AcDbEntity
  8
Sichtbare_Kanten_TC_020513_DIN_
  6
Continuous
 62
     7
100
AcDbPolyline
 90
        2
 70
     0
 43
0.5
 10
287.028696957993
 20
244.460075867801
 10
287.028696957993
 20
242.960075867801
  0
LWPOLYLINE
  5
2A6
330
1F
100
AcDbEntity
  8
Sichtbare_Kanten_TC_020513_DIN_
  6
Continuous
 62
     7
100
AcDbPolyline
 90
        2
 70
     0
 43
0.5
 10
283.528696957993
 20
302.460075867801
 10
283.528696957993
 20
299.460075867801
  0
LWPOLYLINE
  5
2A7
330
1F
100
AcDbEntity
  8
Sichtbare_Kanten_TC_020513_DIN_
  6
Continuous
 62
     7
100
AcDbPolyline
 90
        2
 70
     0
 43
0.5
 10
264.528696957993
 20
302.460075867801
 10
283.528696957993
 20
302.460075867801
  0
LWPOLYLINE
  5
2A8
330
1F
100
AcDbEntity
  8
Sichtbare_Kanten_TC_020513_DIN_
  6
Continuous
 62
     7
100
AcDbPolyline
 90
        2
 70
     0
 43
0.5
 10
264.528696957993
 20
299.460075867801
 10
264.528696957993
 20
302.460075867801
  0
LWPOLYLINE
  5
2A9
330
1F
100
AcDbEntity
  8
Sichtbare_Kanten_TC_020513_DIN_
  6
Continuous
 62
     7
100
AcDbPolyline
 90
        2
 70
     0
 43
0.5
 10
238.778696957993
 20
293.460075867801
 10
238.778696957993
 20
261.960075867801
  0
LWPOLYLINE
  5
2AA
330
1F
100
AcDbEntity
  8
Sichtbare_Kanten_TC_020513_DIN_
  6
Continuous
 62
     7
100
AcDbPolyline
 90
        2
 70
     0
 43
0.5
 10
244.778696957993
 20
296.960075867801
 10
303.278696957993
 20
296.960075867801
  0
LWPOLYLINE
  5
2AB
330
1F
100
AcDbEntity
  8
Sichtbare_Kanten_TC_020513_DIN_
  6
Continuous
 62
     7
100
AcDbPolyline
 90
        2
 70
     0
 43
0.5
 10
306.778696957993
 20
293.460075867801
 10
306.778696957993
 20
261.960075867801
  0
LWPOLYLINE
  5
2AC
330
1F
100
AcDbEntity
  8
Sichtbare_Kanten_TC_020513_DIN_
  6
Continuous
 62
     7
100
AcDbPolyline
 90
        2
 70
     0
 43
0.5
 10
244.778696957993
 20
255.960075867801
 10
303.278696957993
 20
255.960075867801
  0
LWPOLYLINE
  5
2AD
330
1F
100
AcDbEntity
  8
Sichtbare_Kanten_TC_020513_DIN_
  6
Continuous
 62
     7
100
AcDbPolyline
 90
        2
 70
     0
 43
0.5
 10
241.278696957993
 20
261.960075867801
 10
241.278696957993
 20
293.460075867801
  0
LWPOLYLINE
  5
2AE
330
1F
100
AcDbEntity
  8
Sichtbare_Kanten_TC_020513_DIN_
  6
Continuous
 62
     7
100
AcDbPolyline
 90
        2
 70
     0
 43
0.5
 10
303.278696957993
 20
258.460075867801
 10
244.778696957993
 20
258.460075867801
  0
LWPOLYLINE
  5
2AF
330
1F
100
AcDbEntity
  8
Sichtbare_Kanten_TC_020513_DIN_
  6
Continuous
 62
     7
100
AcDbPolyline
 90
        2
 70
     0
 43
0.5
 10
303.278696957993
 20
299.460075867801
 10
283.528696957993
 20
299.460075867801
  0
LWPOLYLINE
  5
2B0
330
1F
100
AcDbEntity
  8
Sichtbare_Kanten_TC_020513_DIN_
  6
Continuous
 62
     7
100
AcDbPolyline
 90
        2
 70
     0
 43
0.5
 10
264.528696957993
 20
299.460075867801
 10
244.778696957993
 20
299.460075867801
  0
LWPOLYLINE
  5
2B1
330
1F
100
AcDbEntity
  8
Sichtbare_Kanten_TC_020513_DIN_
  6
Continuous
 62
     7
100
AcDbPolyline
 90
        2
 70
     0
 43
0.5
 10
309.278696957993
 20
261.960075867801
 10
309.278696957993
 20
293.460075867801
  0
LWPOLYLINE
  5
2B2
330
1F
100
AcDbEntity
  8
Sichtbare_Kanten_TC_020513_DIN_
  6
Continuous
 62
     7
100
AcDbPolyline
 90
        2
 70
     0
 43
0.5
 10
282.028696957993
 20
247.70958212396
 10
266.028696957993
 20
247.70958212396
  0
LWPOLYLINE
  5
2B3
330
1F
100
AcDbEntity
  8
Sichtbare_Kanten_TC_020513_DIN_
  6
Continuous
 62
     7
100
AcDbPolyline
 90
        2
 70
     0
 43
0.5
 10
283.028696957993
 20
246.702072298501
 10
283.028696957993
 20
254.960075867801
  0
LWPOLYLINE
  5
2B4
330
1F
100
AcDbEntity
  8
Sichtbare_Kanten_TC_020513_DIN_
  6
Continuous
 62
     7
100
AcDbPolyline
 90
        2
 70
     0
 43
0.5
 10
265.028696957993
 20
254.960075867801
 10
265.028696957993
 20
246.702072298501
  0
LWPOLYLINE
  5
2B5
330
1F
100
AcDbEntity
  8
Sichtbare_Kanten_TC_020513_DIN_
  6
Continuous
 62
     7
100
AcDbPolyline
 90
        2
 70
     0
 43
0.5
 10
283.028696957993
 20
242.960075867801
 10
283.028696957993
 20
246.321440159702
  0
LWPOLYLINE
  5
2B6
330
1F
100
AcDbEntity
  8
Sichtbare_Kanten_TC_020513_DIN_
  6
Continuous
 62
     7
100
AcDbPolyline
 90
        2
 70
     0
 43
0.5
 10
283.028696957993
 20
246.321440159702
 10
283.028696957993
 20
246.702072298501
  0
LWPOLYLINE
  5
2B7
330
1F
100
AcDbEntity
  8
Sichtbare_Kanten_TC_020513_DIN_
  6
Continuous
 62
     7
100
AcDbPolyline
 90
        2
 70
     0
 43
0.5
 10
265.028696957993
 20
246.702072298501
 10
265.028696957993
 20
246.321440159702
  0
LWPOLYLINE
  5
2B8
330
1F
100
AcDbEntity
  8
Sichtbare_Kanten_TC_020513_DIN_
  6
Continuous
 62
     7
100
AcDbPolyline
 90
        2
 70
     0
 43
0.5
 10
265.028696957993
 20
246.321440159702
 10
265.028696957993
 20
242.960075867801
  0
LWPOLYLINE
  5
2B9
330
1F
100
AcDbEntity
  8
Sichtbare_Kanten_TC_020513_DIN_
  6
Continuous
 62
     7
100
AcDbPolyline
 90
        2
 70
     0
 43
0.5
 10
309.278696957993
 20
273.210075867801
 10
315.528696957993
 20
273.210075867801
  0
LWPOLYLINE
  5
2BA
330
1F
100
AcDbEntity
  8
Sichtbare_Kanten_TC_020513_DIN_
  6
Continuous
 62
     7
100
AcDbPolyline
 90
        2
 70
     0
 43
0.5
 10
309.278696957993
 20
282.210075867801
 10
315.528696957993
 20
282.210075867801
  0
LWPOLYLINE
  5
2BB
330
1F
100
AcDbEntity
  8
Sichtbare_Kanten_TC_020513_DIN_
  6
Continuous
 62
     7
100
AcDbPolyline
 90
        2
 70
     0
 43
0.5
 10
315.528696957993
 20
273.968418481027
 10
315.528696957993
 20
281.451733254574
  0
LWPOLYLINE
  5
2BC
330
1F
100
AcDbEntity
  8
Sichtbare_Kanten_TC_020513_DIN_
  6
Continuous
 62
     7
100
AcDbPolyline
 90
        2
 70
     0
 43
0.5
 10
309.278696957993
 20
273.968418481027
 10
315.528696957993
 20
273.968418481027
  0
LWPOLYLINE
  5
2BD
330
1F
100
AcDbEntity
  8
Sichtbare_Kanten_TC_020513_DIN_
  6
Continuous
 62
     7
100
AcDbPolyline
 90
        2
 70
     0
 43
0.5
 10
315.528696957993
 20
273.968418481027
 10
315.528696957993
 20
273.210075867801
  0
LWPOLYLINE
  5
2BE
330
1F
100
AcDbEntity
  8
Sichtbare_Kanten_TC_020513_DIN_
  6
Continuous
 62
     7
100
AcDbPolyline
 90
        2
 70
     0
 43
0.5
 10
315.528696957993
 20
282.210075867801
 10
315.528696957993
 20
281.451733254574
  0
LWPOLYLINE
  5
2BF
330
1F
100
AcDbEntity
  8
Sichtbare_Kanten_TC_020513_DIN_
  6
Continuous
 62
     7
100
AcDbPolyline
 90
        2
 70
     0
 43
0.5
 10
309.278696957993
 20
281.451733254574
 10
315.528696957993
 20
281.451733254574
  0
LWPOLYLINE
  5
2C0
330
1F
100
AcDbEntity
  8
Sichtbare_Kanten_TC_020513_DIN_
  6
Continuous
 62
     7
100
AcDbPolyline
 90
        2
 70
     0
 43
0.5
 10
232.528696957993
 20
273.210075867801
 10
238.778696957993
 20
273.210075867801
  0
LWPOLYLINE
  5
2C1
330
1F
100
AcDbEntity
  8
Sichtbare_Kanten_TC_020513_DIN_
  6
Continuous
 62
     7
100
AcDbPolyline
 90
        2
 70
     0
 43
0.5
 10
232.528696957993
 20
282.210075867801
 10
238.778696957993
 20
282.210075867801
  0
LWPOLYLINE
  5
2C2
330
1F
100
AcDbEntity
  8
Sichtbare_Kanten_TC_020513_DIN_
  6
Continuous
 62
     7
100
AcDbPolyline
 90
        2
 70
     0
 43
0.5
 10
232.528696957993
 20
273.968418481027
 10
232.528696957993
 20
281.451733254574
  0
LWPOLYLINE
  5
2C3
330
1F
100
AcDbEntity
  8
Sichtbare_Kanten_TC_020513_DIN_
  6
Continuous
 62
     7
100
AcDbPolyline
 90
        2
 70
     0
 43
0.5
 10
238.778696957993
 20
281.451733254574
 10
232.528696957993
 20
281.451733254574
  0
LWPOLYLINE
  5
2C4
330
1F
100
AcDbEntity
  8
Sichtbare_Kanten_TC_020513_DIN_
  6
Continuous
 62
     7
100
AcDbPolyline
 90
        2
 70
     0
 43
0.5
 10
232.528696957993
 20
273.968418481027
 10
232.528696957993
 20
273.210075867801
  0
LWPOLYLINE
  5
2C5
330
1F
100
AcDbEntity
  8
Sichtbare_Kanten_TC_020513_DIN_
  6
Continuous
 62
     7
100
AcDbPolyline
 90
        2
 70
     0
 43
0.5
 10
232.528696957993
 20
282.210075867801
 10
232.528696957993
 20
281.451733254574
  0
LWPOLYLINE
  5
2C6
330
1F
100
AcDbEntity
  8
Sichtbare_Kanten_TC_020513_DIN_
  6
Continuous
 62
     7
100
AcDbPolyline
 90
        2
 70
     0
 43
0.5
 10
238.778696957993
 20
273.968418481027
 10
232.528696957993
 20
273.968418481027
  0
LWPOLYLINE
  5
2C7
330
1F
100
AcDbEntity
  8
Sichtbare_Kanten_TC_020513_DIN_
  6
Continuous
 62
     7
100
AcDbPolyline
 90
        2
 70
     0
 43
0.5
 10
238.778696957993
 20
237.460075867801
 10
238.778696957993
 20
189.960075867801
  0
LWPOLYLINE
  5
2C8
330
1F
100
AcDbEntity
  8
Sichtbare_Kanten_TC_020513_DIN_
  6
Continuous
 62
     7
100
AcDbPolyline
 90
        2
 70
     0
 43
0.5
 10
309.278696957993
 20
237.460075867801
 10
309.278696957993
 20
189.960075867801
  0
LWPOLYLINE
  5
2C9
330
1F
100
AcDbEntity
  8
Sichtbare_Kanten_TC_020513_DIN_
  6
Continuous
 62
     7
100
AcDbPolyline
 90
        2
 70
     0
 43
0.5
 10
275.153696957993
 20
222.499258359899
 10
275.153696957993
 20
228.263655681487
  0
LWPOLYLINE
  5
2CA
330
1F
100
AcDbEntity
  8
Sichtbare_Kanten_TC_020513_DIN_
  6
Continuous
 62
     7
100
AcDbPolyline
 90
        2
 70
     0
 43
0.5
 10
275.903696957993
 20
229.420893375702
 10
275.903696957993
 20
222.499258359899
  0
LWPOLYLINE
  5
2CB
330
1F
100
AcDbEntity
  8
Sichtbare_Kanten_TC_020513_DIN_
  6
Continuous
 62
     7
100
AcDbPolyline
 90
        2
 70
     0
 43
0.5
 10
274.028696957993
 20
227.988831380441
 10
275.224968098502
 20
229.640833776521
  0
LWPOLYLINE
  5
2CC
330
1F
100
AcDbEntity
  8
Sichtbare_Kanten_TC_020513_DIN_
  6
Continuous
 62
     7
100
AcDbPolyline
 90
        2
 70
     0
 43
0.5
 10
272.832425817484
 20
229.640833776522
 10
274.028696957993
 20
227.988831380441
  0
LWPOLYLINE
  5
2CD
330
1F
100
AcDbEntity
  8
Sichtbare_Kanten_TC_020513_DIN_
  6
Continuous
 62
     7
100
AcDbPolyline
 90
        2
 70
     0
 43
0.5
 10
272.153696957993
 20
224.273296821437
 10
272.153696957993
 20
229.420893375702
  0
LWPOLYLINE
  5
2CE
330
1F
100
AcDbEntity
  8
Sichtbare_Kanten_TC_020513_DIN_
  6
Continuous
 62
     7
100
AcDbPolyline
 90
        2
 70
     0
 43
0.5
 10
272.903696957993
 20
228.263655681487
 10
272.903696957993
 20
224.273296821437
  0
LWPOLYLINE
  5
2CF
330
1F
100
AcDbEntity
  8
Sichtbare_Kanten_TC_020513_DIN_
  6
Continuous
 62
     7
100
AcDbPolyline
 90
        2
 70
     0
 43
0.5
 10
274.028696957993
 20
226.710075867801
 10
272.903696957993
 20
228.263655681487
  0
LWPOLYLINE
  5
2D0
330
1F
100
AcDbEntity
  8
Sichtbare_Kanten_TC_020513_DIN_
  6
Continuous
 62
     7
100
AcDbPolyline
 90
        2
 70
     0
 43
0.5
 10
275.153696957993
 20
228.263655681487
 10
274.028696957993
 20
226.710075867801
  0
LWPOLYLINE
  5
2D1
330
1F
100
AcDbEntity
  8
Sichtbare_Kanten_TC_020513_DIN_
  6
Continuous
 62
     7
100
AcDbPolyline
 90
        2
 70
     0
 43
0.5
 10
273.841301037934
 20
221.309054149746
 10
270.766301037935
 20
223.083092611285
  0
LWPOLYLINE
  5
2D2
330
1F
100
AcDbEntity
  8
Sichtbare_Kanten_TC_020513_DIN_
  6
Continuous
 62
     7
100
AcDbPolyline
 90
        2
 70
     0
 43
0.5
 10
271.328696957993
 20
223.624498677778
 10
274.216092878052
 20
221.958693339282
  0
LWPOLYLINE
  5
2D3
330
1F
100
AcDbEntity
  8
Sichtbare_Kanten_TC_020513_DIN_
  6
Continuous
 62
     7
100
AcDbPolyline
 90
        2
 70
     0
 43
0.5
 10
271.328696957993
 20
228.512239529548
 10
271.328696957993
 20
223.624498677778
  0
LWPOLYLINE
  5
2D4
330
1F
100
AcDbEntity
  8
Sichtbare_Kanten_TC_020513_DIN_
  6
Continuous
 62
     7
100
AcDbPolyline
 90
        2
 70
     0
 43
0.5
 10
270.578696957993
 20
223.407912206053
 10
270.578696957993
 20
228.512239529548
  0
LWPOLYLINE
  5
2D5
330
1F
100
AcDbEntity
  8
Sichtbare_Kanten_TC_020513_DIN_
  6
Continuous
 62
     7
100
AcDbPolyline
 90
        2
 70
     0
 43
0.5
 10
274.028696957993
 20
231.152143242229
 10
265.029113508983
 20
225.960075867801
  0
LWPOLYLINE
  5
2D6
330
1F
100
AcDbEntity
  8
Sichtbare_Kanten_TC_020513_DIN_
  6
Continuous
 62
     7
100
AcDbPolyline
 90
        2
 70
     0
 43
0.5
 10
283.028280407003
 20
225.960075867801
 10
274.028696957993
 20
231.152143242229
  0
LWPOLYLINE
  5
2D7
330
1F
100
AcDbEntity
  8
Sichtbare_Kanten_TC_020513_DIN_
  6
Continuous
 62
     7
100
AcDbPolyline
 90
        2
 70
     0
 43
0.5
 10
274.028696957993
 20
220.768008493372
 10
283.028280407003
 20
225.960075867801
  0
LWPOLYLINE
  5
2D8
330
1F
100
AcDbEntity
  8
Sichtbare_Kanten_TC_020513_DIN_
  6
Continuous
 62
     7
100
AcDbPolyline
 90
        2
 70
     0
 43
0.5
 10
265.029113508983
 20
225.960075867801
 10
274.028696957993
 20
220.768008493372
  0
LWPOLYLINE
  5
2D9
330
1F
100
AcDbEntity
  8
Sichtbare_Kanten_TC_020513_DIN_
  6
Continuous
 62
     7
100
AcDbPolyline
 90
        2
 70
     0
 43
0.5
 10
269.078696957993
 20
224.273296821437
 10
269.078696957993
 20
227.646854914164
  0
LWPOLYLINE
  5
2DA
330
1F
100
AcDbEntity
  8
Sichtbare_Kanten_TC_020513_DIN_
  6
Continuous
 62
     7
100
AcDbPolyline
 90
        2
 70
     0
 43
0.5
 10
269.828696957993
 20
227.646854914164
 10
269.828696957993
 20
224.273296821437
  0
LWPOLYLINE
  5
2DB
330
1F
100
AcDbEntity
  8
Sichtbare_Kanten_TC_020513_DIN_
  6
Continuous
 62
     7
100
AcDbPolyline
 90
        2
 70
     0
 43
0.5
 10
279.466092878052
 20
224.337900303592
 10
277.216092878052
 20
223.039823380515
  0
LWPOLYLINE
  5
2DC
330
1F
100
AcDbEntity
  8
Sichtbare_Kanten_TC_020513_DIN_
  6
Continuous
 62
     7
100
AcDbPolyline
 90
        2
 70
     0
 43
0.5
 10
277.403696957993
 20
224.013921754701
 10
279.091301037935
 20
224.987539493129
  0
LWPOLYLINE
  5
2DD
330
1F
100
AcDbEntity
  8
Sichtbare_Kanten_TC_020513_DIN_
  6
Continuous
 62
     7
100
AcDbPolyline
 90
        2
 70
     0
 43
0.5
 10
277.403696957993
 20
225.585075867801
 10
277.403696957993
 20
224.013921754701
  0
LWPOLYLINE
  5
2DE
330
1F
100
AcDbEntity
  8
Sichtbare_Kanten_TC_020513_DIN_
  6
Continuous
 62
     7
100
AcDbPolyline
 90
        2
 70
     0
 43
0.5
 10
279.278696957993
 20
225.585075867801
 10
277.403696957993
 20
225.585075867801
  0
LWPOLYLINE
  5
2DF
330
1F
100
AcDbEntity
  8
Sichtbare_Kanten_TC_020513_DIN_
  6
Continuous
 62
     7
100
AcDbPolyline
 90
        2
 70
     0
 43
0.5
 10
277.403696957993
 20
226.335075867801
 10
279.278696957993
 20
226.335075867801
  0
LWPOLYLINE
  5
2E0
330
1F
100
AcDbEntity
  8
Sichtbare_Kanten_TC_020513_DIN_
  6
Continuous
 62
     7
100
AcDbPolyline
 90
        2
 70
     0
 43
0.5
 10
277.403696957993
 20
227.9062299809
 10
277.403696957993
 20
226.335075867801
  0
LWPOLYLINE
  5
2E1
330
1F
100
AcDbEntity
  8
Sichtbare_Kanten_TC_020513_DIN_
  6
Continuous
 62
     7
100
AcDbPolyline
 90
        2
 70
     0
 43
0.5
 10
279.091301037934
 20
226.932612242472
 10
277.403696957993
 20
227.9062299809
  0
LWPOLYLINE
  5
2E2
330
1F
100
AcDbEntity
  8
Sichtbare_Kanten_TC_020513_DIN_
  6
Continuous
 62
     7
100
AcDbPolyline
 90
        2
 70
     0
 43
0.5
 10
277.216092878052
 20
228.880328355086
 10
279.466092878052
 20
227.582251432009
  0
LWPOLYLINE
  5
2E3
330
1F
100
AcDbEntity
  8
Sichtbare_Kanten_TC_020513_DIN_
  6
Continuous
 62
     7
100
AcDbPolyline
 90
        2
 70
     0
 43
0.5
 10
276.653696957993
 20
223.364642975283
 10
276.653696957993
 20
228.555508760318
  0
LWPOLYLINE
  5
2E4
330
1F
100
AcDbEntity
  8
Sichtbare_Kanten_TC_020513_DIN_
  6
Continuous
 62
     7
100
AcDbPolyline
 90
        2
 70
     0
 43
0.5
 10
283.778696957993
 20
225.960075867801
 10
274.028696957993
 20
220.335075867801
  0
LWPOLYLINE
  5
2E5
330
1F
100
AcDbEntity
  8
Sichtbare_Kanten_TC_020513_DIN_
  6
Continuous
 62
     7
100
AcDbPolyline
 90
        2
 70
     0
 43
0.5
 10
274.028696957993
 20
231.585075867801
 10
283.778696957993
 20
225.960075867801
  0
LWPOLYLINE
  5
2E6
330
1F
100
AcDbEntity
  8
Sichtbare_Kanten_TC_020513_DIN_
  6
Continuous
 62
     7
100
AcDbPolyline
 90
        2
 70
     0
 43
0.5
 10
264.278696957993
 20
225.960075867801
 10
274.028696957993
 20
231.585075867801
  0
LWPOLYLINE
  5
2E7
330
1F
100
AcDbEntity
  8
Sichtbare_Kanten_TC_020513_DIN_
  6
Continuous
 62
     7
100
AcDbPolyline
 90
        2
 70
     0
 43
0.5
 10
274.028696957993
 20
220.335075867801
 10
264.278696957993
 20
225.960075867801
  0
LWPOLYLINE
  5
2E8
330
1F
100
AcDbEntity
  8
Sichtbare_Kanten_TC_020513_DIN_
  6
Continuous
 62
     7
100
AcDbPolyline
 90
        2
 70
     0
 43
0.5
 10
320.778696957993
 20
212.210075867801
 10
309.278696957993
 20
212.210075867801
  0
LWPOLYLINE
  5
2E9
330
1F
100
AcDbEntity
  8
Sichtbare_Kanten_TC_020513_DIN_
  6
Continuous
 62
     7
100
AcDbPolyline
 90
        2
 70
     0
 43
0.5
 10
320.778696957993
 20
185.960075867801
 10
320.778696957993
 20
189.960075867801
  0
LWPOLYLINE
  5
2EA
330
1F
100
AcDbEntity
  8
Sichtbare_Kanten_TC_020513_DIN_
  6
Continuous
 62
     7
100
AcDbPolyline
 90
        2
 70
     0
 43
0.5
 10
320.778696957993
 20
189.960075867801
 10
320.778696957993
 20
200.460075867801
  0
LWPOLYLINE
  5
2EB
330
1F
100
AcDbEntity
  8
Sichtbare_Kanten_TC_020513_DIN_
  6
Continuous
 62
     7
100
AcDbPolyline
 90
        2
 70
     0
 43
0.5
 10
320.778696957993
 20
212.210075867801
 10
320.778696957993
 20
200.460075867801
  0
LWPOLYLINE
  5
2EC
330
1F
100
AcDbEntity
  8
Sichtbare_Kanten_TC_020513_DIN_
  6
Continuous
 62
     7
100
AcDbPolyline
 90
        2
 70
     0
 43
0.5
 10
238.778696957993
 20
212.210075867801
 10
227.278696957993
 20
212.210075867801
  0
LWPOLYLINE
  5
2ED
330
1F
100
AcDbEntity
  8
Sichtbare_Kanten_TC_020513_DIN_
  6
Continuous
 62
     7
100
AcDbPolyline
 90
        2
 70
     0
 43
0.5
 10
227.278696957993
 20
212.210075867801
 10
227.278696957993
 20
200.460075867801
  0
LWPOLYLINE
  5
2EE
330
1F
100
AcDbEntity
  8
Sichtbare_Kanten_TC_020513_DIN_
  6
Continuous
 62
     7
100
AcDbPolyline
 90
        2
 70
     0
 43
0.5
 10
227.278696957993
 20
189.960075867801
 10
227.278696957993
 20
200.460075867801
  0
LWPOLYLINE
  5
2EF
330
1F
100
AcDbEntity
  8
Sichtbare_Kanten_TC_020513_DIN_
  6
Continuous
 62
     7
100
AcDbPolyline
 90
        2
 70
     0
 43
0.5
 10
227.278696957993
 20
189.960075867801
 10
227.278696957993
 20
185.960075867801
  0
LWPOLYLINE
  5
2F0
330
1F
100
AcDbEntity
  8
Sichtbare_Kanten_TC_020513_DIN_
  6
Continuous
 62
     7
100
AcDbPolyline
 90
        2
 70
     0
 43
0.5
 10
310.046646150424
 20
189.960075867801
 10
319.778696957993
 20
189.960075867801
  0
LWPOLYLINE
  5
2F1
330
1F
100
AcDbEntity
  8
Sichtbare_Kanten_TC_020513_DIN_
  6
Continuous
 62
     7
100
AcDbPolyline
 90
        2
 70
     0
 43
0.5
 10
238.010747765562
 20
189.960075867801
 10
228.278696957993
 20
189.960075867801
  0
LWPOLYLINE
  5
2F2
330
1F
100
AcDbEntity
  8
Sichtbare_Kanten_TC_020513_DIN_
  6
Continuous
 62
     7
100
AcDbPolyline
 90
        2
 70
     0
 43
0.5
 10
238.010747765562
 20
185.960075867801
 10
228.278696957993
 20
185.960075867801
  0
LWPOLYLINE
  5
2F3
330
1F
100
AcDbEntity
  8
Sichtbare_Kanten_TC_020513_DIN_
  6
Continuous
 62
     7
100
AcDbPolyline
 90
        2
 70
     0
 43
0.5
 10
310.046646150424
 20
185.960075867801
 10
319.778696957993
 20
185.960075867801
  0
LWPOLYLINE
  5
2F4
330
1F
100
AcDbEntity
  8
Sichtbare_Kanten_TC_020513_DIN_
  6
Continuous
 62
     7
100
AcDbPolyline
 90
        2
 70
     0
 43
0.5
 10
297.819404814472
 20
186.460075867801
 10
250.237989101514
 20
186.460075867801
  0
LWPOLYLINE
  5
2F5
330
1F
100
AcDbEntity
  8
Sichtbare_Kanten_TC_020513_DIN_
  6
Continuous
 62
     7
100
AcDbPolyline
 90
        2
 70
     0
 43
0.5
 10
249.737989101514
 20
189.960075867801
 10
238.510747765562
 20
189.960075867801
  0
LWPOLYLINE
  5
2F6
330
1F
100
AcDbEntity
  8
Sichtbare_Kanten_TC_020513_DIN_
  6
Continuous
 62
     7
100
AcDbPolyline
 90
        2
 70
     0
 43
0.5
 10
298.319404814472
 20
189.960075867801
 10
309.546646150424
 20
189.960075867801
  0
LWPOLYLINE
  5
2F7
330
1F
100
AcDbEntity
  8
Sichtbare_Kanten_TC_020513_DIN_
  6
Continuous
 62
     7
100
AcDbPolyline
 90
        2
 70
     0
 43
0.5
 10
238.510747765562
 20
186.460075867801
 10
249.737989101514
 20
186.460075867801
  0
LWPOLYLINE
  5
2F8
330
1F
100
AcDbEntity
  8
Sichtbare_Kanten_TC_020513_DIN_
  6
Continuous
 62
     7
100
AcDbPolyline
 90
        2
 70
     0
 43
0.5
 10
309.546646150424
 20
186.460075867801
 10
298.319404814472
 20
186.460075867801
  0
LWPOLYLINE
  5
2F9
330
1F
100
AcDbEntity
  8
Sichtbare_Kanten_TC_020513_DIN_
  6
Continuous
 62
     7
100
AcDbPolyline
 90
        2
 70
     0
 43
0.5
 10
250.237989101514
 20
189.960075867801
 10
249.737989101514
 20
189.960075867801
  0
LWPOLYLINE
  5
2FA
330
1F
100
AcDbEntity
  8
Sichtbare_Kanten_TC_020513_DIN_
  6
Continuous
 62
     7
100
AcDbPolyline
 90
        2
 70
     0
 43
0.5
 10
238.010747765562
 20
189.960075867801
 10
238.510747765562
 20
189.960075867801
  0
LWPOLYLINE
  5
2FB
330
1F
100
AcDbEntity
  8
Sichtbare_Kanten_TC_020513_DIN_
  6
Continuous
 62
     7
100
AcDbPolyline
 90
        2
 70
     0
 43
0.5
 10
309.546646150424
 20
189.960075867801
 10
310.046646150424
 20
189.960075867801
  0
LWPOLYLINE
  5
2FC
330
1F
100
AcDbEntity
  8
Sichtbare_Kanten_TC_020513_DIN_
  6
Continuous
 62
     7
100
AcDbPolyline
 90
        2
 70
     0
 43
0.5
 10
298.319404814472
 20
189.960075867801
 10
297.819404814472
 20
189.960075867801
  0
LWPOLYLINE
  5
2FD
330
1F
100
AcDbEntity
  8
Sichtbare_Kanten_TC_020513_DIN_
  6
Continuous
 62
     7
100
AcDbPolyline
 90
        2
 70
     0
 43
0.5
 10
319.778696957993
 20
189.960075867801
 10
320.778696957993
 20
189.960075867801
  0
LWPOLYLINE
  5
2FE
330
1F
100
AcDbEntity
  8
Sichtbare_Kanten_TC_020513_DIN_
  6
Continuous
 62
     7
100
AcDbPolyline
 90
        2
 70
     0
 43
0.5
 10
238.278696957993
 20
185.960075867801
 10
238.278696957993
 20
186.460075867801
  0
LWPOLYLINE
  5
2FF
330
1F
100
AcDbEntity
  8
Sichtbare_Kanten_TC_020513_DIN_
  6
Continuous
 62
     7
100
AcDbPolyline
 90
        2
 70
     0
 43
0.5
 10
238.278696957993
 20
185.960075867801
 10
238.010747765562
 20
185.960075867801
  0
LWPOLYLINE
  5
300
330
1F
100
AcDbEntity
  8
Sichtbare_Kanten_TC_020513_DIN_
  6
Continuous
 62
     7
100
AcDbPolyline
 90
        2
 70
     0
 43
0.5
 10
228.278696957993
 20
185.960075867801
 10
227.278696957993
 20
185.960075867801
  0
LWPOLYLINE
  5
301
330
1F
100
AcDbEntity
  8
Sichtbare_Kanten_TC_020513_DIN_
  6
Continuous
 62
     7
100
AcDbPolyline
 90
        2
 70
     0
 43
0.5
 10
227.278696957993
 20
189.960075867801
 10
228.278696957993
 20
189.960075867801
  0
LWPOLYLINE
  5
302
330
1F
100
AcDbEntity
  8
Sichtbare_Kanten_TC_020513_DIN_
  6
Continuous
 62
     7
100
AcDbPolyline
 90
        2
 70
     0
 43
0.5
 10
310.046646150424
 20
185.960075867801
 10
309.778696957993
 20
185.960075867801
  0
LWPOLYLINE
  5
303
330
1F
100
AcDbEntity
  8
Sichtbare_Kanten_TC_020513_DIN_
  6
Continuous
 62
     7
100
AcDbPolyline
 90
        2
 70
     0
 43
0.5
 10
320.778696957993
 20
185.960075867801
 10
319.778696957993
 20
185.960075867801
  0
LWPOLYLINE
  5
304
330
1F
100
AcDbEntity
  8
Sichtbare_Kanten_TC_020513_DIN_
  6
Continuous
 62
     7
100
AcDbPolyline
 90
        2
 70
     0
 43
0.5
 10
309.778696957993
 20
186.460075867801
 10
309.778696957993
 20
185.960075867801
  0
LWPOLYLINE
  5
305
330
1F
100
AcDbEntity
  8
Sichtbare_Kanten_TC_020513_DIN_
  6
Continuous
 62
     7
100
AcDbPolyline
 90
        2
 70
     0
 43
0.5
 10
238.510747765562
 20
186.460075867801
 10
238.278696957993
 20
186.460075867801
  0
LWPOLYLINE
  5
306
330
1F
100
AcDbEntity
  8
Sichtbare_Kanten_TC_020513_DIN_
  6
Continuous
 62
     7
100
AcDbPolyline
 90
        2
 70
     0
 43
0.5
 10
249.737989101514
 20
186.460075867801
 10
250.237989101514
 20
186.460075867801
  0
LWPOLYLINE
  5
307
330
1F
100
AcDbEntity
  8
Sichtbare_Kanten_TC_020513_DIN_
  6
Continuous
 62
     7
100
AcDbPolyline
 90
        2
 70
     0
 43
0.5
 10
297.819404814472
 20
186.460075867801
 10
298.319404814472
 20
186.460075867801
  0
LWPOLYLINE
  5
308
330
1F
100
AcDbEntity
  8
Sichtbare_Kanten_TC_020513_DIN_
  6
Continuous
 62
     7
100
AcDbPolyline
 90
        2
 70
     0
 43
0.5
 10
309.778696957993
 20
186.460075867801
 10
309.546646150424
 20
186.460075867801
  0
LWPOLYLINE
  5
309
330
1F
100
AcDbEntity
  8
Sichtbare_Kanten_TC_020513_DIN_
  6
Continuous
 62
     7
100
AcDbPolyline
 90
        2
 70
     0
 43
0.5
 10
424.426764414541
 20
216.960075867801
 42
0.4142135623728
 10
425.42676441454
 20
215.960075867801
  0
LWPOLYLINE
  5
30A
330
1F
100
AcDbEntity
  8
Sichtbare_Kanten_TC_020513_DIN_
  6
Continuous
 62
     7
100
AcDbPolyline
 90
        2
 70
     0
 43
0.5
 10
425.426764414541
 20
247.460075867801
 42
0.4142135623731
 10
424.426764414541
 20
246.460075867801
  0
LWPOLYLINE
  5
30B
330
1F
100
AcDbEntity
  8
Sichtbare_Kanten_TC_020513_DIN_
  6
Continuous
 62
     7
100
AcDbPolyline
 90
        2
 70
     0
 43
0.5
 10
417.926764414536
 20
299.460075867801
 42
0.4142135623731
 10
415.926764414536
 20
297.460075867801
  0
LWPOLYLINE
  5
30C
330
1F
100
AcDbEntity
  8
Sichtbare_Kanten_TC_020513_DIN_
  6
Continuous
 62
     7
100
AcDbPolyline
 90
        2
 70
     0
 43
0.5
 10
415.926764414536
 20
257.960075867801
 42
0.4142135623731
 10
417.926764414536
 20
255.960075867801
  0
LWPOLYLINE
  5
30D
330
1F
100
AcDbEntity
  8
Sichtbare_Kanten_TC_020513_DIN_
  6
Continuous
 62
     7
100
AcDbPolyline
 90
        2
 70
     0
 43
0.5
 10
420.951951620837
 20
239.571847300147
 42
0.33945425886335
 10
422.400840360271
 20
238.460075867801
  0
LWPOLYLINE
  5
30E
330
1F
100
AcDbEntity
  8
Sichtbare_Kanten_TC_020513_DIN_
  6
Continuous
 62
     7
100
AcDbPolyline
 90
        2
 70
     0
 43
0.5
 10
416.404612563081
 20
256.542747702936
 42
0.08294873678138
 10
416.268045962709
 20
256.842644394489
  0
LWPOLYLINE
  5
30F
330
1F
100
AcDbEntity
  8
Sichtbare_Kanten_TC_020513_DIN_
  6
Continuous
 62
     7
100
AcDbPolyline
 90
        2
 70
     0
 43
0.5
 10
427.426764414533
 20
281.451733254574
 42
1.8708286933871
 10
427.426764414533
 20
273.968418481027
  0
LWPOLYLINE
  5
310
330
1F
100
AcDbEntity
  8
Sichtbare_Kanten_TC_020513_DIN_
  6
Continuous
 62
     7
100
AcDbPolyline
 90
        2
 70
     0
 43
0.5
 10
475.426764414531
 20
200.460075867801
 42
1.0
 10
451.926764414531
 20
200.460075867801
  0
LWPOLYLINE
  5
311
330
1F
100
AcDbEntity
  8
Sichtbare_Kanten_TC_020513_DIN_
  6
Continuous
 62
     7
100
AcDbPolyline
 90
        2
 70
     0
 43
0.5
 10
289.028696957993
 20
246.960075867801
 42
0.4142135623731
 10
288.528696957993
 20
247.460075867801
  0
LWPOLYLINE
  5
312
330
1F
100
AcDbEntity
  8
Sichtbare_Kanten_TC_020513_DIN_
  6
Continuous
 62
     7
100
AcDbPolyline
 90
        2
 70
     0
 43
0.5
 10
259.528696957993
 20
247.460075867801
 42
0.4142135623731
 10
259.028696957993
 20
246.960075867801
  0
LWPOLYLINE
  5
313
330
1F
100
AcDbEntity
  8
Sichtbare_Kanten_TC_020513_DIN_
  6
Continuous
 62
     7
100
AcDbPolyline
 90
        2
 70
     0
 43
0.5
 10
238.778696957993
 20
261.960075867801
 42
0.4142135623731
 10
244.778696957993
 20
255.960075867801
  0
LWPOLYLINE
  5
314
330
1F
100
AcDbEntity
  8
Sichtbare_Kanten_TC_020513_DIN_
  6
Continuous
 62
     7
100
AcDbPolyline
 90
        2
 70
     0
 43
0.5
 10
244.778696957993
 20
299.460075867801
 42
0.4142135623731
 10
238.778696957993
 20
293.460075867801
  0
LWPOLYLINE
  5
315
330
1F
100
AcDbEntity
  8
Sichtbare_Kanten_TC_020513_DIN_
  6
Continuous
 62
     7
100
AcDbPolyline
 90
        2
 70
     0
 43
0.5
 10
309.278696957993
 20
293.460075867801
 42
0.4142135623731
 10
303.278696957993
 20
299.460075867801
  0
LWPOLYLINE
  5
316
330
1F
100
AcDbEntity
  8
Sichtbare_Kanten_TC_020513_DIN_
  6
Continuous
 62
     7
100
AcDbPolyline
 90
        2
 70
     0
 43
0.5
 10
244.778696957993
 20
296.960075867801
 42
0.4142135623731
 10
241.278696957993
 20
293.460075867801
  0
LWPOLYLINE
  5
317
330
1F
100
AcDbEntity
  8
Sichtbare_Kanten_TC_020513_DIN_
  6
Continuous
 62
     7
100
AcDbPolyline
 90
        2
 70
     0
 43
0.5
 10
306.778696957993
 20
293.460075867801
 42
0.4142135623731
 10
303.278696957993
 20
296.960075867801
  0
LWPOLYLINE
  5
318
330
1F
100
AcDbEntity
  8
Sichtbare_Kanten_TC_020513_DIN_
  6
Continuous
 62
     7
100
AcDbPolyline
 90
        2
 70
     0
 43
0.5
 10
241.278696957993
 20
261.960075867801
 42
0.4142135623731
 10
244.778696957993
 20
258.460075867801
  0
LWPOLYLINE
  5
319
330
1F
100
AcDbEntity
  8
Sichtbare_Kanten_TC_020513_DIN_
  6
Continuous
 62
     7
100
AcDbPolyline
 90
        2
 70
     0
 43
0.5
 10
303.278696957993
 20
258.460075867801
 42
0.4142135623731
 10
306.778696957993
 20
261.960075867801
  0
LWPOLYLINE
  5
31A
330
1F
100
AcDbEntity
  8
Sichtbare_Kanten_TC_020513_DIN_
  6
Continuous
 62
     7
100
AcDbPolyline
 90
        2
 70
     0
 43
0.5
 10
303.278696957993
 20
255.960075867801
 42
0.4142135623731
 10
309.278696957993
 20
261.960075867801
  0
LWPOLYLINE
  5
31B
330
1F
100
AcDbEntity
  8
Sichtbare_Kanten_TC_020513_DIN_
  6
Continuous
 62
     7
100
AcDbPolyline
 90
        2
 70
     0
 43
0.5
 10
265.028696957993
 20
254.960075867801
 42
0.4142135623731
 10
264.028696957993
 20
255.960075867801
  0
LWPOLYLINE
  5
31C
330
1F
100
AcDbEntity
  8
Sichtbare_Kanten_TC_020513_DIN_
  6
Continuous
 62
     7
100
AcDbPolyline
 90
        2
 70
     0
 43
0.5
 10
284.028696957993
 20
255.960075867801
 42
0.4142135623731
 10
283.028696957993
 20
254.960075867801
  0
LWPOLYLINE
  5
31D
330
1F
100
AcDbEntity
  8
Sichtbare_Kanten_TC_020513_DIN_
  6
Continuous
 62
     7
100
AcDbPolyline
 90
        2
 70
     0
 43
0.5
 10
275.153696957993
 20
222.499258359899
 42
1.0
 10
275.903696957993
 20
222.499258359899
  0
LWPOLYLINE
  5
31E
330
1F
100
AcDbEntity
  8
Sichtbare_Kanten_TC_020513_DIN_
  6
Continuous
 62
     7
100
AcDbPolyline
 90
        2
 70
     0
 43
0.5
 10
275.903696957993
 20
229.420893375702
 42
0.72714551713834
 10
275.224968098502
 20
229.640833776521
  0
LWPOLYLINE
  5
31F
330
1F
100
AcDbEntity
  8
Sichtbare_Kanten_TC_020513_DIN_
  6
Continuous
 62
     7
100
AcDbPolyline
 90
        2
 70
     0
 43
0.5
 10
272.832425817484
 20
229.640833776522
 42
0.72714551713747
 10
272.153696957993
 20
229.420893375702
  0
LWPOLYLINE
  5
320
330
1F
100
AcDbEntity
  8
Sichtbare_Kanten_TC_020513_DIN_
  6
Continuous
 62
     7
100
AcDbPolyline
 90
        2
 70
     0
 43
0.5
 10
272.153696957993
 20
224.273296821437
 42
1.0
 10
272.903696957993
 20
224.273296821437
  0
LWPOLYLINE
  5
321
330
1F
100
AcDbEntity
  8
Sichtbare_Kanten_TC_020513_DIN_
  6
Continuous
 62
     7
100
AcDbPolyline
 90
        2
 70
     0
 43
0.5
 10
270.578696957993
 20
223.407912206053
 42
0.2680350595224
 10
270.766301037935
 20
223.083092611285
  0
LWPOLYLINE
  5
322
330
1F
100
AcDbEntity
  8
Sichtbare_Kanten_TC_020513_DIN_
  6
Continuous
 62
     7
100
AcDbPolyline
 90
        2
 70
     0
 43
0.5
 10
273.841301037934
 20
221.309054149746
 42
1.00000000000007
 10
274.216092878052
 20
221.958693339282
  0
LWPOLYLINE
  5
323
330
1F
100
AcDbEntity
  8
Sichtbare_Kanten_TC_020513_DIN_
  6
Continuous
 62
     7
100
AcDbPolyline
 90
        2
 70
     0
 43
0.5
 10
271.328696957993
 20
228.512239529548
 42
1.0
 10
270.578696957993
 20
228.512239529548
  0
LWPOLYLINE
  5
324
330
1F
100
AcDbEntity
  8
Sichtbare_Kanten_TC_020513_DIN_
  6
Continuous
 62
     7
100
AcDbPolyline
 90
        2
 70
     0
 43
0.5
 10
269.078696957993
 20
224.273296821437
 42
1.0
 10
269.828696957993
 20
224.273296821437
  0
LWPOLYLINE
  5
325
330
1F
100
AcDbEntity
  8
Sichtbare_Kanten_TC_020513_DIN_
  6
Continuous
 62
     7
100
AcDbPolyline
 90
        2
 70
     0
 43
0.5
 10
269.828696957993
 20
227.646854914164
 42
1.0
 10
269.078696957993
 20
227.646854914164
  0
LWPOLYLINE
  5
326
330
1F
100
AcDbEntity
  8
Sichtbare_Kanten_TC_020513_DIN_
  6
Continuous
 62
     7
100
AcDbPolyline
 90
        2
 70
     0
 43
0.5
 10
276.653696957993
 20
223.364642975283
 42
0.57724345630815
 10
277.216092878052
 20
223.039823380515
  0
LWPOLYLINE
  5
327
330
1F
100
AcDbEntity
  8
Sichtbare_Kanten_TC_020513_DIN_
  6
Continuous
 62
     7
100
AcDbPolyline
 90
        2
 70
     0
 43
0.5
 10
279.466092878052
 20
224.337900303592
 42
0.99999999999819
 10
279.091301037935
 20
224.987539493129
  0
LWPOLYLINE
  5
328
330
1F
100
AcDbEntity
  8
Sichtbare_Kanten_TC_020513_DIN_
  6
Continuous
 62
     7
100
AcDbPolyline
 90
        2
 70
     0
 43
0.5
 10
279.278696957993
 20
225.585075867801
 42
1.0
 10
279.278696957993
 20
226.335075867801
  0
LWPOLYLINE
  5
329
330
1F
100
AcDbEntity
  8
Sichtbare_Kanten_TC_020513_DIN_
  6
Continuous
 62
     7
100
AcDbPolyline
 90
        2
 70
     0
 43
0.5
 10
279.091301037934
 20
226.932612242472
 42
0.99999999999941
 10
279.466092878052
 20
227.582251432009
  0
LWPOLYLINE
  5
32A
330
1F
100
AcDbEntity
  8
Sichtbare_Kanten_TC_020513_DIN_
  6
Continuous
 62
     7
100
AcDbPolyline
 90
        2
 70
     0
 43
0.5
 10
277.216092878052
 20
228.880328355086
 42
0.57724345630815
 10
276.653696957993
 20
228.555508760318
  0
LWPOLYLINE
  5
32B
330
1F
100
AcDbEntity
  8
Sichtbare_Kanten_TC_020513_DIN_
  6
Continuous
 62
     7
100
AcDbPolyline
 90
        3
 70
     0
 43
0.5
 10
455.676764414527
 20
200.460075867801
 42
1.0
 10
471.676764414535
 20
200.460075867801
 42
1.0
 10
455.676764414527
 20
200.460075867801
  0
LWPOLYLINE
  5
32C
330
1F
100
AcDbEntity
  8
Sichtbare_Kanten_TC_020513_DIN_
  6
Continuous
 62
     7
100
AcDbPolyline
 90
        3
 70
     0
 43
0.5
 10
453.676764414531
 20
200.460075867801
 42
1.0
 10
473.676764414531
 20
200.460075867801
 42
1.0
 10
453.676764414531
 20
200.460075867801
  0
LWPOLYLINE
  5
32D
330
1F
100
AcDbEntity
  8
Sichtbare_Kanten_TC_020513_DIN_
  6
Continuous
 62
     7
100
AcDbPolyline
 90
        3
 70
     0
 43
0.5
 10
259.028696957993
 20
233.460075867801
 42
1.0
 10
263.528696957993
 20
233.460075867801
 42
1.0
 10
259.028696957993
 20
233.460075867801
  0
LWPOLYLINE
  5
32E
330
1F
100
AcDbEntity
  8
Sichtbare_Kanten_TC_020513_DIN_
  6
Continuous
 62
     7
100
AcDbPolyline
 90
        3
 70
     0
 43
0.5
 10
258.778696957993
 20
233.460075867801
 42
1.0
 10
263.778696957993
 20
233.460075867801
 42
1.0
 10
258.778696957993
 20
233.460075867801
  0
LWPOLYLINE
  5
32F
330
1F
100
AcDbEntity
  8
Sichtbare_Kanten_TC_020513_DIN_
  6
Continuous
 62
     7
100
AcDbPolyline
 90
        3
 70
     0
 43
0.5
 10
257.278696957993
 20
233.460075867801
 42
1.0
 10
265.278696957993
 20
233.460075867801
 42
1.0
 10
257.278696957993
 20
233.460075867801
  0
LWPOLYLINE
  5
330
330
1F
100
AcDbEntity
  8
Sichtbare_Kanten_TC_020513_DIN_
  6
Continuous
 62
     7
100
AcDbPolyline
 90
        3
 70
     0
 43
0.5
 10
284.528696957993
 20
233.460075867801
 42
1.0
 10
289.028696957993
 20
233.460075867801
 42
1.0
 10
284.528696957993
 20
233.460075867801
  0
LWPOLYLINE
  5
331
330
1F
100
AcDbEntity
  8
Sichtbare_Kanten_TC_020513_DIN_
  6
Continuous
 62
     7
100
AcDbPolyline
 90
        3
 70
     0
 43
0.5
 10
284.278696957993
 20
233.460075867801
 42
1.0
 10
289.278696957993
 20
233.460075867801
 42
1.0
 10
284.278696957993
 20
233.460075867801
  0
LWPOLYLINE
  5
332
330
1F
100
AcDbEntity
  8
Sichtbare_Kanten_TC_020513_DIN_
  6
Continuous
 62
     7
100
AcDbPolyline
 90
        3
 70
     0
 43
0.5
 10
282.778696957993
 20
233.460075867801
 42
1.0
 10
290.778696957993
 20
233.460075867801
 42
1.0
 10
282.778696957993
 20
233.460075867801
  0
LEADER
  5
333
330
1F
100
AcDbEntity
  8
Symbole_TC_020513_DIN_
  6
Continuous
 62
     7
100
AcDbLeader
  3
Standard
 71
     0
 76
     3
 10
486.176764414533
 20
189.960075867801
 30
0.0
 10
499.385221880289
 20
217.137858663386
 30
0.0
 10
502.785221880289
 20
217.137858663386
 30
0.0
  0
TEXT
  5
335
330
1F
100
AcDbEntity
  8
Symbole_ISO_
 62
     7
100
AcDbText
 10
276.0
 20
38.4999999403953
 30
0.0
 40
8.00000011920929
  1
MMP 03 CS220
 41
0.74999995529652
  7
CONVERTER_13
100
AcDbText
  0
TEXT
  5
337
330
1F
100
AcDbEntity
  8
Symbole_ISO_
 62
     7
100
AcDbText
 10
502.610914283349
 20
24.9999999999999
 30
0.0
 40
10.0
  1
1:2
 41
0.56249998509884
  7
CONVERTER_14
100
AcDbText
  0
TEXT
  5
339
330
1F
100
AcDbEntity
  8
Symbole_ISO_
 62
     7
100
AcDbText
 10
276.0
 20
23.4999999403953
 30
0.0
 40
8.00000011920929
  1
surface mount.h.pegs, cover 2xM20 ins.
 41
0.625
  7
CONVERTER_15
100
AcDbText
  0
TOLERANCE
  5
33B
330
1F
100
AcDbEntity
  8
Symbole_TC_020513_DIN_
 62
     7
100
AcDbFcf
  3
ME10_DIM_10
 10
504.385221880289
 20
213.6378587229903
 30
0.0
  1
{\Fgdt;n}^J5,5
1001
ACAD
1000
DSTYLE
1002
{
1070
   140
1040
6.99999988079071
1002
}
  0
DIMENSION
  5
346
330
1F
100
AcDbEntity
  8
Bemaßungen_TC_020513_DIN_
100
AcDbDimension
  2
*D3
 10
547.1767644145314
 20
242.960075867801
 30
0.0
 11
539.1539093854474
 21
223.186433302998
 31
0.0
 70
    32
  1
57
 71
     5
 42
-1.0
 53
90.0
  3
ME10_DIM_11
100
AcDbAlignedDimension
 13
491.176764414531
 23
185.960075867801
 33
0.0
 14
479.676764414534
 24
242.960075867801
 34
0.0
 50
90.0
100
AcDbRotatedDimension
  0
DIMENSION
  5
353
330
1F
100
AcDbEntity
  8
Bemaßungen_TC_020513_DIN_
100
AcDbDimension
  2
*D4
 10
505.2340216135781
 20
189.960075867801
 30
0.0
 11
497.3479519618367
 21
172.388329619506
 31
0.0
 70
    32
  1
4
 71
     5
 42
-1.0
 53
90.0
  3
ME10_DIM_12
100
AcDbAlignedDimension
 13
491.176764414531
 23
185.960075867801
 33
0.0
 14
491.176764414531
 24
189.960075867801
 34
0.0
 50
90.0
100
AcDbRotatedDimension
  0
DIMENSION
  5
35E
330
1F
100
AcDbEntity
  8
Bemaßungen_TC_020513_DIN_
100
AcDbDimension
  2
*D5
 10
492.176764414531
 20
141.9600863034023
 30
0.0
 11
464.403121849729
 21
149.3560652252425
 31
0.0
 70
    32
  1
52
 71
     5
 42
-1.0
 53
0.00013888888889
  3
ME10_DIM_13
100
AcDbAlignedDimension
 13
435.176764414531
 23
185.960075867801
 33
0.0
 14
492.176764414531
 24
185.960075867801
 34
0.0
100
AcDbRotatedDimension
  0
DIMENSION
  5
369
330
1F
100
AcDbEntity
  8
Bemaßungen_TC_020513_DIN_
100
AcDbDimension
  2
*D6
 10
486.176764414533
 20
160.9600863034023
 30
0.0
 11
464.236000430904
 21
168.3560652252425
 31
0.0
 70
    32
  1
40
 71
     5
 42
-1.0
 53
0.00013888888889
  3
ME10_DIM_14
100
AcDbAlignedDimension
 13
441.176764414533
 23
180.960075867801
 33
0.0
 14
486.176764414533
 24
180.960075867801
 34
0.0
100
AcDbRotatedDimension
  0
DIMENSION
  5
374
330
1F
100
AcDbEntity
  8
Bemaßungen_TC_020513_DIN_
100
AcDbDimension
  2
*D7
 10
491.926764414541
 20
325.4600863034022
 30
0.0
 11
454.684158684661
 21
333.5464061536154
 31
0.0
 70
    32
  1
76
 71
     5
 42
-1.0
 53
0.00013888888889
  3
ME10_DIM_15
100
AcDbAlignedDimension
 13
415.926764414535
 23
293.460075867801
 33
0.0
 14
491.926764414541
 24
235.710075867801
 34
0.0
100
AcDbRotatedDimension
  0
DIMENSION
  5
37F
330
1F
100
AcDbEntity
  8
Bemaßungen_TC_020513_DIN_
100
AcDbDimension
  2
*D8
 10
320.778696957993
 20
141.9600967390173
 30
0.0
 11
276.391029836574
 21
151.83414209872
 31
0.0
 70
    32
  1
93,5
 71
     5
 42
-1.0
 53
0.00013888888889
  3
ME10_DIM_16
100
AcDbAlignedDimension
 13
227.278696957993
 23
185.960075867801
 33
0.0
 14
320.778696957993
 24
185.960075867801
 34
0.0
100
AcDbRotatedDimension
  0
DIMENSION
  5
38A
330
1F
100
AcDbEntity
  8
Bemaßungen_TC_020513_DIN_
100
AcDbDimension
  2
*D9
 10
315.028696957993
 20
160.9600863034021
 30
0.0
 11
274.786091228116
 21
169.0464061536154
 31
0.0
 70
    32
  1
82
 71
     5
 42
-1.0
 53
0.00013888888889
  3
ME10_DIM_17
100
AcDbAlignedDimension
 13
233.028696957993
 23
180.960075867801
 33
0.0
 14
315.028696957993
 24
180.960075867801
 34
0.0
100
AcDbRotatedDimension
  0
DIMENSION
  5
395
330
1F
100
AcDbEntity
  8
Bemaßungen_TC_020513_DIN_
100
AcDbDimension
  2
*D10
 10
207.7786969579928
 20
190.460075867801
 30
0.0
 11
199.6923666721776
 21
200.155341897814
 31
0.0
 70
    32
  1
M20
 71
     5
 42
-1.0
 53
90.0
  3
ME10_DIM_18
100
AcDbAlignedDimension
 13
227.778696957993
 23
210.460075867801
 33
0.0
 14
227.778696957993
 24
190.460075867801
 34
0.0
 50
90.0
100
AcDbRotatedDimension
  0
DIMENSION
  5
3A0
330
1F
100
AcDbEntity
  8
Bemaßungen_TC_020513_DIN_
100
AcDbDimension
  2
*D11
 10
352.2786969579927
 20
190.460075867801
 30
0.0
 11
344.1923666721776
 21
200.155341897814
 31
0.0
 70
    32
  1
M20
 71
     5
 42
-1.0
 53
90.0
  3
ME10_DIM_19
100
AcDbAlignedDimension
 13
314.961709659885
 23
210.460075867801
 33
0.0
 14
320.278696957993
 24
190.460075867801
 34
0.0
 50
90.0
100
AcDbRotatedDimension
  0
HATCH
  5
3A1
330
1F
100
AcDbEntity
  8
Symbole_TC_020513_DIN_
  6
Continuous
 62
     7
100
AcDbHatch
 10
0.0
 20
0.0
 30
0.0
210
0.0
220
0.0
230
1.0
  2
SOLID
 70
     1
 71
     1
 91
        1
 92
        1
 93
        3
 72
     1
 10
488.954376653906
 20
194.169372691584
 11
487.770285627475
 21
194.744843327869
 72
     1
 10
487.770285627475
 20
194.744843327869
 11
486.176764414533
 21
189.960075867801
 72
     1
 10
486.176764414533
 20
189.960075867801
 11
488.954376653906
 21
194.169372691584
 97
        3
330
1F8
330
1F9
330
1FA
 75
     0
 76
     1
 98
        1
 10
0.0
 20
0.0
  0
ENDSEC
  0
SECTION
  2
OBJECTS
  0
DICTIONARY
  5
C
330
0
100
AcDbDictionary
281
     1
  3
ACAD_GROUP
350
D
  3
ACAD_LAYOUT
350
1A
  3
ACAD_MLEADERSTYLE
350
3A3
  3
ACAD_MLINESTYLE
350
17
  3
ACAD_PLOTSETTINGS
350
19
  3
ACAD_PLOTSTYLENAME
350
E
  3
ACAD_TABLESTYLE
350
3A2
  3
ACAD_VISUALSTYLE
350
2A
  0
DICTIONARY
  5
D
102
{ACAD_REACTORS
330
C
102
}
330
C
100
AcDbDictionary
281
     1
  0
DICTIONARY
  5
1A
102
{ACAD_REACTORS
330
C
102
}
330
C
100
AcDbDictionary
281
     1
  3
Layout1
350
1E
  3
Layout2
350
26
  3
Model
350
22
  0
DICTIONARY
  5
3A3
102
{ACAD_REACTORS
330
C
102
}
330
C
100
AcDbDictionary
281
     1
  0
DICTIONARY
  5
17
102
{ACAD_REACTORS
330
C
102
}
330
C
100
AcDbDictionary
281
     1
  3
Standard
350
18
  0
DICTIONARY
  5
19
102
{ACAD_REACTORS
330
C
102
}
330
C
100
AcDbDictionary
281
     1
  0
ACDBDICTIONARYWDFLT
  5
E
102
{ACAD_REACTORS
330
C
102
}
330
C
100
AcDbDictionary
281
     1
  3
Normal
350
F
100
AcDbDictionaryWithDefault
340
F
  0
DICTIONARY
  5
3A2
102
{ACAD_REACTORS
330
C
102
}
330
C
100
AcDbDictionary
281
     1
  0
DICTIONARY
  5
2A
102
{ACAD_REACTORS
330
C
102
}
330
C
100
AcDbDictionary
281
     1
  3
2dWireframe
350
2F
  3
3D Hidden
350
31
  3
3dWireframe
350
30
  3
Basic
350
32
  3
Brighten
350
36
  3
ColorChange
350
3A
  3
Conceptual
350
34
  3
Dim
350
35
  3
Facepattern
350
39
  3
Flat
350
2B
  3
FlatWithEdges
350
2C
  3
Gouraud
350
2D
  3
GouraudWithEdges
350
2E
  3
Linepattern
350
38
  3
Realistic
350
33
  3
Thicken
350
37
  0
LAYOUT
  5
1E
102
{ACAD_REACTORS
330
1A
102
}
330
1A
100
AcDbPlotSettings
  1

  2
none_device
  4

  6

 40
0.0
 41
0.0
 42
0.0
 43
0.0
 44
0.0
 45
0.0
 46
0.0
 47
0.0
 48
0.0
 49
0.0
140
0.0
141
0.0
142
1.0
143
1.0
 70
   688
 72
     0
 73
     0
 74
     5
  7

 75
    16
147
1.0
148
0.0
149
0.0
100
AcDbLayout
  1
Layout1
 70
     1
 71
     1
 10
0.0
 20
0.0
 11
12.0
 21
9.0
 12
0.0
 22
0.0
 32
0.0
 14
1.00000000000000E+20
 24
1.00000000000000E+20
 34
1.00000000000000E+20
 15
-1.00000000000000E+20
 25
-1.00000000000000E+20
 35
-1.00000000000000E+20
146
0.0
 13
0.0
 23
0.0
 33
0.0
 16
1.0
 26
0.0
 36
0.0
 17
0.0
 27
1.0
 37
0.0
 76
     0
330
1B
  0
LAYOUT
  5
26
102
{ACAD_REACTORS
330
1A
102
}
330
1A
100
AcDbPlotSettings
  1

  2
none_device
  4

  6

 40
0.0
 41
0.0
 42
0.0
 43
0.0
 44
0.0
 45
0.0
 46
0.0
 47
0.0
 48
0.0
 49
0.0
140
0.0
141
0.0
142
1.0
143
1.0
 70
   688
 72
     0
 73
     0
 74
     5
  7

 75
    16
147
1.0
148
0.0
149
0.0
100
AcDbLayout
  1
Layout2
 70
     1
 71
     2
 10
0.0
 20
0.0
 11
0.0
 21
0.0
 12
0.0
 22
0.0
 32
0.0
 14
0.0
 24
0.0
 34
0.0
 15
0.0
 25
0.0
 35
0.0
146
0.0
 13
0.0
 23
0.0
 33
0.0
 16
1.0
 26
0.0
 36
0.0
 17
0.0
 27
1.0
 37
0.0
 76
     0
330
23
  0
LAYOUT
  5
22
102
{ACAD_REACTORS
330
1A
102
}
330
1A
100
AcDbPlotSettings
  1

  2
none_device
  4

  6

 40
0.0
 41
0.0
 42
0.0
 43
0.0
 44
0.0
 45
0.0
 46
0.0
 47
0.0
 48
0.0
 49
0.0
140
0.0
141
0.0
142
1.0
143
1.0
 70
  1712
 72
     0
 73
     0
 74
     0
  7

 75
     0
147
1.0
148
0.0
149
0.0
100
AcDbLayout
  1
Model
 70
     1
 71
     0
 10
0.0
 20
0.0
 11
12.0
 21
9.0
 12
0.0
 22
0.0
 32
0.0
 14
19.49999999999996
 24
19.4999999999999
 34
0.0
 15
574.5
 25
420.5
 35
0.0
146
0.0
 13
0.0
 23
0.0
 33
0.0
 16
1.0
 26
0.0
 36
0.0
 17
0.0
 27
1.0
 37
0.0
 76
     0
330
1F
331
29
  0
MLINESTYLE
  5
18
102
{ACAD_REACTORS
330
17
102
}
330
17
100
AcDbMlineStyle
  2
Standard
 70
     0
  3

 62
   256
 51
90.0
 52
90.0
 71
     2
 49
0.5
 62
   256
  6
BYLAYER
 49
-0.5
 62
   256
  6
BYLAYER
  0
ACDBPLACEHOLDER
  5
F
102
{ACAD_REACTORS
330
E
102
}
330
E
  0
VISUALSTYLE
  5
2F
102
{ACAD_REACTORS
330
2A
102
}
330
2A
100
AcDbVisualStyle
  2
2dWireframe
 70
     4
 71
     0
 72
     2
 73
     0
 90
        0
 40
-0.6
 41
-30.0
 62
     5
 63
     7
 74
     1
 91
        4
 64
     7
 65
   257
 75
     1
175
     1
 42
1.0
 92
        0
 66
   257
 43
1.0
 76
     1
 77
     6
 78
     2
 67
     7
 79
     5
170
     0
171
     0
290
     0
174
     0
 93
        1
 44
0.0
173
     0
291
     0
 45
0.0
1001
ACAD
1000
AcDbSavedByObjectVersion
1070
     0
  0
VISUALSTYLE
  5
31
102
{ACAD_REACTORS
330
2A
102
}
330
2A
100
AcDbVisualStyle
  2
3D Hidden
 70
     6
 71
     1
 72
     2
 73
     2
 90
        0
 40
-0.6
 41
-30.0
 62
     5
 63
     7
 74
     2
 91
        2
 64
     7
 65
   257
 75
     2
175
     1
 42
40.0
 92
        0
 66
   257
 43
1.0
 76
     1
 77
     6
 78
     2
 67
     7
 79
     3
170
     0
171
     0
290
     0
174
     0
 93
        1
 44
0.0
173
     0
291
     0
 45
0.0
1001
ACAD
1000
AcDbSavedByObjectVersion
1070
     0
  0
VISUALSTYLE
  5
30
102
{ACAD_REACTORS
330
2A
102
}
330
2A
100
AcDbVisualStyle
  2
3dWireframe
 70
     5
 71
     0
 72
     2
 73
     0
 90
        0
 40
-0.6
 41
-30.0
 62
     5
 63
     7
 74
     1
 91
        4
 64
     7
 65
   257
 75
     1
175
     1
 42
1.0
 92
        0
 66
   257
 43
1.0
 76
     1
 77
     6
 78
     2
 67
     7
 79
     5
170
     0
171
     0
290
     0
174
     0
 93
        1
 44
0.0
173
     0
291
     0
 45
0.0
1001
ACAD
1000
AcDbSavedByObjectVersion
1070
     0
  0
VISUALSTYLE
  5
32
102
{ACAD_REACTORS
330
2A
102
}
330
2A
100
AcDbVisualStyle
  2
Basic
 70
     7
 71
     1
 72
     0
 73
     1
 90
        0
 40
-0.6
 41
-30.0
 62
     5
 63
     7
 74
     0
 91
        4
 64
     7
 65
   257
 75
     1
175
     1
 42
1.0
 92
        8
 66
     7
 43
1.0
 76
     1
 77
     6
 78
     2
 67
     7
 79
     5
170
     0
171
     0
290
     0
174
     0
 93
        1
 44
0.0
173
     0
291
     1
 45
0.0
1001
ACAD
1000
AcDbSavedByObjectVersion
1070
     0
  0
VISUALSTYLE
  5
36
102
{ACAD_REACTORS
330
2A
102
}
330
2A
100
AcDbVisualStyle
  2
Brighten
 70
    12
 71
     2
 72
     2
 73
     0
 90
        0
 40
-0.6
 41
-30.0
 62
     5
 63
     7
 74
     1
 91
        4
 64
     7
 65
   257
 75
     1
175
     1
 42
1.0
 92
        8
 66
     7
 43
1.0
 76
     1
 77
     6
 78
     2
 67
     7
 79
     5
170
     0
171
     0
290
     0
174
     0
 93
        1
 44
50.0
173
     0
291
     1
 45
0.0
1001
ACAD
1000
AcDbSavedByObjectVersion
1070
     0
  0
VISUALSTYLE
  5
3A
102
{ACAD_REACTORS
330
2A
102
}
330
2A
100
AcDbVisualStyle
  2
ColorChange
 70
    16
 71
     2
 72
     2
 73
     3
 90
        0
 40
-0.6
 41
-30.0
 62
     5
 63
     8
 74
     1
 91
        4
 64
     7
 65
   257
 75
     1
175
     1
 42
1.0
 92
        8
 66
     8
 43
1.0
 76
     1
 77
     6
 78
     2
 67
     7
 79
     5
170
     0
171
     0
290
     0
174
     0
 93
        1
 44
0.0
173
     0
291
     1
 45
0.0
1001
ACAD
1000
AcDbSavedByObjectVersion
1070
     0
  0
VISUALSTYLE
  5
34
102
{ACAD_REACTORS
330
2A
102
}
330
2A
100
AcDbVisualStyle
  2
Conceptual
 70
     9
 71
     3
 72
     2
 73
     0
 90
        0
 40
-0.6
 41
-30.0
 62
     5
 63
     7
 74
     2
 91
        2
 64
     7
 65
   257
 75
     1
175
     1
 42
40.0
 92
        8
 66
     7
 43
1.0
 76
     1
 77
     6
 78
     2
 67
     7
 79
     3
170
     0
171
     0
290
     0
174
     0
 93
        1
 44
0.0
173
     0
291
     0
 45
0.0
1001
ACAD
1000
AcDbSavedByObjectVersion
1070
     0
  0
VISUALSTYLE
  5
35
102
{ACAD_REACTORS
330
2A
102
}
330
2A
100
AcDbVisualStyle
  2
Dim
 70
    11
 71
     2
 72
     2
 73
     0
 90
        0
 40
-0.6
 41
-30.0
 62
     5
 63
     7
 74
     1
 91
        4
 64
     7
 65
   257
 75
     1
175
     1
 42
1.0
 92
        8
 66
     7
 43
1.0
 76
     1
 77
     6
 78
     2
 67
     7
 79
     5
170
     0
171
     0
290
     0
174
     0
 93
        1
 44
-50.0
173
     0
291
     1
 45
0.0
1001
ACAD
1000
AcDbSavedByObjectVersion
1070
     0
  0
VISUALSTYLE
  5
39
102
{ACAD_REACTORS
330
2A
102
}
330
2A
100
AcDbVisualStyle
  2
Facepattern
 70
    15
 71
     2
 72
     2
 73
     0
 90
        0
 40
-0.6
 41
-30.0
 62
     5
 63
     7
 74
     1
 91
        4
 64
     7
 65
   257
 75
     1
175
     1
 42
1.0
 92
        8
 66
     7
 43
1.0
 76
     1
 77
     6
 78
     2
 67
     7
 79
     5
170
     0
171
     0
290
     0
174
     0
 93
        1
 44
0.0
173
     0
291
     1
 45
0.0
1001
ACAD
1000
AcDbSavedByObjectVersion
1070
     0
  0
VISUALSTYLE
  5
2B
102
{ACAD_REACTORS
330
2A
102
}
330
2A
100
AcDbVisualStyle
  2
Flat
 70
     0
 71
     2
 72
     1
 73
     1
 90
        2
 40
-0.6
 41
30.0
 62
     5
 63
     7
 74
     0
 91
        4
 64
     7
 65
   257
 75
     1
175
     1
 42
1.0
 92
        8
 66
     7
 43
1.0
 76
     1
 77
     6
 78
     2
 67
     7
 79
     5
170
     0
171
     0
290
     0
174
     0
 93
       13
 44
0.0
173
     0
291
     1
 45
0.0
1001
ACAD
1000
AcDbSavedByObjectVersion
1070
     0
  0
VISUALSTYLE
  5
2C
102
{ACAD_REACTORS
330
2A
102
}
330
2A
100
AcDbVisualStyle
  2
FlatWithEdges
 70
     1
 71
     2
 72
     1
 73
     1
 90
        2
 40
-0.6
 41
30.0
 62
     5
 63
     7
 74
     1
 91
        4
 64
     7
 65
   257
 75
     1
175
     1
 42
1.0
 92
        0
 66
   257
 43
1.0
 76
     1
 77
     6
 78
     2
 67
     7
 79
     5
170
     0
171
     0
290
     0
174
     0
 93
       13
 44
0.0
173
     0
291
     1
 45
0.0
1001
ACAD
1000
AcDbSavedByObjectVersion
1070
     0
  0
VISUALSTYLE
  5
2D
102
{ACAD_REACTORS
330
2A
102
}
330
2A
100
AcDbVisualStyle
  2
Gouraud
 70
     2
 71
     2
 72
     2
 73
     1
 90
        2
 40
-0.6
 41
30.0
 62
     5
 63
     7
 74
     0
 91
        4
 64
     7
 65
   257
 75
     1
175
     1
 42
1.0
 92
        0
 66
     7
 43
1.0
 76
     1
 77
     6
 78
     2
 67
     7
 79
     5
170
     0
171
     0
290
     0
174
     0
 93
       13
 44
0.0
173
     0
291
     1
 45
0.0
1001
ACAD
1000
AcDbSavedByObjectVersion
1070
     0
  0
VISUALSTYLE
  5
2E
102
{ACAD_REACTORS
330
2A
102
}
330
2A
100
AcDbVisualStyle
  2
GouraudWithEdges
 70
     3
 71
     2
 72
     2
 73
     1
 90
        2
 40
-0.6
 41
30.0
 62
     5
 63
     7
 74
     1
 91
        4
 64
     7
 65
   257
 75
     1
175
     1
 42
1.0
 92
        0
 66
   257
 43
1.0
 76
     1
 77
     6
 78
     2
 67
     7
 79
     5
170
     0
171
     0
290
     0
174
     0
 93
       13
 44
0.0
173
     0
291
     1
 45
0.0
1001
ACAD
1000
AcDbSavedByObjectVersion
1070
     0
  0
VISUALSTYLE
  5
38
102
{ACAD_REACTORS
330
2A
102
}
330
2A
100
AcDbVisualStyle
  2
Linepattern
 70
    14
 71
     2
 72
     2
 73
     0
 90
        0
 40
-0.6
 41
-30.0
 62
     5
 63
     7
 74
     1
 91
        4
 64
     7
 65
   257
 75
     7
175
     7
 42
1.0
 92
        8
 66
     7
 43
1.0
 76
     1
 77
     6
 78
     2
 67
     7
 79
     5
170
     0
171
     0
290
     0
174
     0
 93
        1
 44
0.0
173
     0
291
     1
 45
0.0
1001
ACAD
1000
AcDbSavedByObjectVersion
1070
     0
  0
VISUALSTYLE
  5
33
102
{ACAD_REACTORS
330
2A
102
}
330
2A
100
AcDbVisualStyle
  2
Realistic
 70
     8
 71
     2
 72
     2
 73
     0
 90
        0
 40
-0.6
 41
-30.0
 62
     5
 63
     7
 74
     1
 91
        0
 64
     7
 65
   257
 75
     1
175
     1
 42
1.0
 92
        8
 66
     8
 43
1.0
 76
     1
 77
     6
 78
     2
 67
     7
 79
     5
170
     0
171
     0
290
     0
174
     0
 93
       13
 44
0.0
173
     0
291
     0
 45
0.0
1001
ACAD
1000
AcDbSavedByObjectVersion
1070
     0
  0
VISUALSTYLE
  5
37
102
{ACAD_REACTORS
330
2A
102
}
330
2A
100
AcDbVisualStyle
  2
Thicken
 70
    13
 71
     2
 72
     2
 73
     0
 90
        0
 40
-0.6
 41
-30.0
 62
     5
 63
     7
 74
     1
 91
        4
 64
     7
 65
   257
 75
     1
175
     1
 42
1.0
 92
       12
 66
     7
 43
1.0
 76
     1
 77
     6
 78
     2
 67
     7
 79
     5
170
     0
171
     0
290
     0
174
     0
 93
        1
 44
0.0
173
     0
291
     1
 45
0.0
1001
ACAD
1000
AcDbSavedByObjectVersion
1070
     0
  0
ENDSEC
  0
EOF
